<?xml version="1.0" standalone="no"?>
<!DOCTYPE svg PUBLIC "-//W3C//DTD SVG 1.1//EN" "http://www.w3.org/Graphics/SVG/1.1/DTD/svg11.dtd" >
<svg xmlns="http://www.w3.org/2000/svg" xmlns:xlink="http://www.w3.org/1999/xlink" version="1.1">
<metadata>
Created by FontForge 20150824 at Thu Oct 13 13:48:57 2016
 By Everything Fonts
(c)1997 Ananda Wijesinghe, Botalegama, Bulathsinhala.
</metadata>
<defs>
<font id="AnandaLight" horiz-adv-x="1000" >
  <font-face 
    font-family="AnandaLight"
    font-weight="300"
    font-stretch="normal"
    units-per-em="1000"
    panose-1="0 0 3 0 0 0 0 0 0 0"
    ascent="800"
    descent="-200"
    x-height="445"
    cap-height="506"
    bbox="-495 -235.391 924 800"
    underline-thickness="17"
    underline-position="-107"
    unicode-range="U+0020-F002"
  />
<missing-glyph horiz-adv-x="500" 
d="M63 0v800h375v-800h-375zM125 63h250v675h-250v-675z" />
    <glyph glyph-name=".notdef" horiz-adv-x="500" 
d="M63 0v800h375v-800h-375zM125 63h250v675h-250v-675z" />
    <glyph glyph-name=".null" horiz-adv-x="0" 
 />
    <glyph glyph-name="nonmarkingreturn" horiz-adv-x="327" 
 />
    <glyph glyph-name="space" unicode=" " horiz-adv-x="327" 
 />
    <glyph glyph-name="exclam" unicode="!" horiz-adv-x="345" 
d="M330 276q0 -121 -33 -190q-29 -60 -88 -79q-22 -7 -47 -7q-69 0 -101 40q-22 28 -27 67q-2 16 -2 85h42q0 -25 -1 -50q1 -41 12 -64q18 -37 79 -36q50 1 81 42q43 56 43 163q0 114 -34 180q-21 41 -61 38q-33 -2 -33 -34q0 -23 20 -69q9 -20 9 -39q0 -34 -24.5 -50.5
t-59.5 -14.5q-64 4 -87 70q-8 23 -8 57q0 32 8 53q13 34 28 48q24 22 69 22q1 -33 0 -43q-67 0 -61 -93q3 -41 27 -62q10 -9 30 -9q30 0 33 22q2 16 -7 40q-9 20 -17 40q-3 10 -3 27q0 51 32 67q19 10 67 10q57 0 90 -91q24 -69 24 -140z" />
    <glyph glyph-name="quotedbl" unicode="&#x22;" horiz-adv-x="158" 
d="M112 -1l-44 -72h-22l26 73l-24 -1v69h64v-69z" />
    <glyph glyph-name="numbersign" unicode="#" horiz-adv-x="173" 
d="M139 410h-107v97h107v-97zM139 0l-107 -1v97h107v-96zM109 438v43h-47v-43h47zM110 28v42h-48v-42h48z" />
    <glyph glyph-name="dollar" unicode="$" horiz-adv-x="305" 
d="M221 575l-159 -687h-44l160 687h43z" />
    <glyph glyph-name="percent" unicode="%" horiz-adv-x="0" 
d="M-23 8q1 -25 -10 -54q-22 -56 -94 -92q-54 -27 -144 -27q-60 0 -109 16q-88 29 -108 91q-9 27 -5 56h40q-4 -42 15 -63q25 -32 78 -49q44 -13 91 -12q120 2 173 58q34 35 34 76h39z" />
    <glyph glyph-name="ampersand" unicode="&#x26;" horiz-adv-x="240" 
d="M172 122q-28 -144 -152 -317h-52q106 136 144 264q26 90 25 169q-2 113 -37 199q-30 74 -58 118q-36 55 -95 109h58q126 -118 165 -301q13 -62 13 -125q0 -59 -11 -116z" />
    <glyph glyph-name="quotesingle" unicode="'" horiz-adv-x="158" 
d="M114 0l-69 -1v84h69v-83z" />
    <glyph glyph-name="parenleft" unicode="(" horiz-adv-x="157" 
d="M126 411h-63v60h63v-60zM126 42h-63v60h63v-60z" />
    <glyph glyph-name="parenright" unicode=")" horiz-adv-x="476" 
d="M405 237h-337v39h337v-39z" />
    <glyph glyph-name="asterisk" unicode="*" horiz-adv-x="525" 
d="M511 216q-8 -116 -63 -173q-46 -47 -150 -43v42q93 0 128 43.5t43 139.5q2 20 2 40q0 80 -23 132q-29 68 -91 68q-53 0 -64 -65q-3 -49 -5 -97v-87h-46q0 19 -1 86q-1 72 -5 92q-16 71 -72 71q-115 0 -109 -240q2 -94 42 -139t128 -45v-41q-68 -1 -108 16q-18 7 -42 28
q-60 52 -63 169q-3 122 16 182q16 51 51 81.5t80 30.5q48 0 78 -21q22 -15 27 -43q6 31 31 49q22 16 70 14q100 -4 133 -110q21 -66 13 -180z" />
    <glyph glyph-name="plus" unicode="+" horiz-adv-x="0" 
d="M12 -40q1 -12 1 -22q0 -59 -34.5 -85.5t-87.5 -26.5q-72 0 -98 32q-17 20 -17 44q0 41 29 56l-32 57h51q9 -19 33 -63q-28 -15 -31 -38q-5 -42 66 -42q77 0 77 71q0 8 -1 17h44z" />
    <glyph glyph-name="comma" unicode="," horiz-adv-x="522" 
d="M502 122q0 -53 -30 -110q-26 -49 -82 -79.5t-125 -31.5q-85 -1 -157 54t-88 167q-12 82 -1 143q13 75 42 120q48 75 117 107q32 15 97 15q60 0 93 -14q85 -36 112 -122q11 -36 11 -72q0 -33 -10 -74.5t-27 -67.5t-69 -49q-25 -11 -57 -11q-86 0 -120 63q-18 34 -18 86
q0 32 8 58h-43v45h224v-46l-134 1q-9 -25 -9 -53q0 -48 22 -74q28 -33 76 -33q42 0 68 25q46 45 43 128q-3 81 -51 126q-46 42 -122 42q-139 0 -196 -162q-16 -44 -16 -101q0 -88 28 -149q21 -47 74 -79q48 -29 96 -30q103 -2 157 64q43 52 43 114h44z" />
    <glyph glyph-name="hyphen" unicode="-" horiz-adv-x="399" 
d="M313 255h-222v50h222v-50z" />
    <glyph glyph-name="hyphen" unicode="&#x2010;" horiz-adv-x="399" 
d="M313 255h-222v50h222v-50z" />
    <glyph glyph-name="period" unicode="." horiz-adv-x="572" 
d="M554 309q11 -102 -13 -176q-29 -89 -92 -120q-37 -17 -97 -16v41q40 -2 73 12q61 26 79 107q14 62 4 148q-6 48 -18 77q-24 55 -75 73q-20 7 -51 7q-59 0 -87 -28q-31 -30 -42 -92q24 1 67 -4q26 -3 47 -24q32 -31 34 -109q2 -74 -25 -120t-67 -66.5t-100 -18.5
q-56 2 -103 41q-59 50 -69 142q-6 57 -1 117q6 77 42 130q41 61 110 75h49l1 -38q-35 2 -62 -7q-37 -12 -70 -67q-18 -40 -25 -91.5t-1 -103.5q9 -79 46.5 -117.5t96.5 -38.5q62 0 99.5 41.5t33.5 127.5q-3 62 -36 84q-11 7 -70 9v-84h-44v93q5 36 14 83q24 61 65 85.5
t115 22.5q72 -2 117.5 -54.5t54.5 -140.5z" />
    <glyph glyph-name="slash" unicode="/" horiz-adv-x="758" 
d="M742 228q0 -80 -7 -113q-15 -64 -63 -87q-24 -11 -52 -11q-47 0 -77 27q-41 37 -49 111q-3 25 -3 50q0 79 33 186q28 92 89 201h-160v40h209v-37q-39 -70 -74.5 -155t-44.5 -147q-13 -85 -4 -144q12 -82 69 -91q41 -7 69 25q21 25 26 76q1 10 1 69h38zM482 255
q0 -133 -90 -207q-60 -49 -144 -49q-91 0 -157 60q-73 67 -78 174q-5 97 40 169.5t122 95.5q95 39 133 72q35 29 34 62h56q-6 -50 -45 -77q-29 -17 -79 -49q40 1 86 -18q34 -14 68 -53q54 -62 54 -180zM440 236q4 229 -182 232q-89 1 -148 -58q-55 -56 -52 -177
q2 -76 58 -133.5t130 -57.5q87 0 143 63q50 56 51 131z" />
    <glyph glyph-name="zero" unicode="0" horiz-adv-x="508" 
d="M483 322q0 -135 -67.5 -229.5t-164.5 -94.5q-98 0 -163.5 94t-65.5 230t65.5 230t165.5 94q98 0 164 -94.5t66 -229.5zM433 322q0 110 -53 192t-129 82q-78 0 -128 -80t-50 -192q0 -111 50 -191q52 -83 128 -83q73 0 127.5 81.5t54.5 190.5z" />
    <glyph glyph-name="one" unicode="1" horiz-adv-x="379" 
d="M238 -1l-55 1v498q0 57 -3 63q-7 14 -33 8q-15 -10 -28 -16l-12 29l80 58l51 -1v-640z" />
    <glyph glyph-name="two" unicode="2" horiz-adv-x="423" 
d="M384 0l-355 -1v59q0 66 79 135l57 50q37 32 98 90q54 59 67 119q2 11 2 24q0 73 -57 102q-27 14 -63 14q-58 0 -91 -28t-35 -79q-35 -2 -52 2q5 31 8 41q7 21 24 46q44 63 135 64q88 1 133.5 -40.5t47.5 -115.5q2 -108 -101 -200l-63 -56q-44 -38 -111 -105
q-17 -22 -21 -32q-6 -13 -5 -37h303v-52z" />
    <glyph glyph-name="three" unicode="3" horiz-adv-x="393" 
d="M380 185q0 -82 -50.5 -133.5t-143.5 -51.5q-54 0 -91 17q-44 20 -62 50q-21 35 -18 80h48q2 -46 33 -71t87 -27q19 1 36 4q41 7 62 25q47 41 47 97q0 78 -52 112q-41 27 -131 27h-49v54h53q62 0 86 8q28 9 48 32q25 28 25 64q1 72 -50 108q-24 17 -84 14q-50 -2 -74 -37
q-16 -23 -20 -51h-52q8 29 20 63q43 65 127 73q76 7 128 -34t56 -116q3 -60 -28 -102q-25 -34 -66 -46q43 -7 79 -49t36 -110z" />
    <glyph glyph-name="four" unicode="4" horiz-adv-x="480" 
d="M452 178h-109v-75q0 -30 -1 -105h-51v180h-273v76l274 388h51v-416h109v-48zM291 226v337l-233 -337h233z" />
    <glyph glyph-name="five" unicode="5" horiz-adv-x="405" 
d="M387 230q0 -112 -64 -172t-155 -60q-96 0 -138 56q-23 30 -20 67h50q4 -35 35 -53q42 -25 99 -15q48 8 89 44q35 31 45 99q3 17 3 36q0 81 -39 122q-19 20 -27 26q-14 10 -38 14q-32 6 -175 6v242h292v-50h-241v-141h88q89 0 145 -60q51 -55 51 -161z" />
    <glyph glyph-name="six" unicode="6" horiz-adv-x="429" 
d="M398 494h-48q-1 17 -6 31q-11 35 -36 53q-13 10 -40 14t-47 0q-63 -12 -99 -81q-33 -64 -45 -188q20 49 61 74q35 22 83 22q68 0 107 -34q69 -61 69 -183q0 -78 -44 -135q-52 -67 -128 -67q-100 0 -149 73q-52 77 -49 240q2 151 61.5 241.5t159.5 88.5q73 -2 117 -50
q36 -40 33 -99zM345 198q0 71 -28 117q-32 51 -89 51q-60 0 -97 -50q-32 -45 -33 -106q-1 -75 35 -119q33 -40 85 -40q51 0 89 43.5t38 103.5z" />
    <glyph glyph-name="seven" unicode="7" horiz-adv-x="442" 
d="M412 588q-112 -182 -165 -352q-39 -127 -53 -236h-55q6 39 21 116q18 84 35 131.5t34 96.5q26 68 57 124l66 120h-334v54h394v-54z" />
    <glyph glyph-name="eight" unicode="8" horiz-adv-x="418" 
d="M398 175q-1 -34 -16 -71q-14 -33 -32 -51q-54 -54 -132 -57q-75 -3 -138 45q-59 45 -59 145q0 55 30.5 102.5t86.5 65.5q-95 31 -95 130q0 67 50 112q47 42 126 42q74 0 119 -43q41 -39 40 -116q0 -40 -23.5 -75t-62.5 -48q109 -44 106 -181zM328 478q2 49 -29.5 80.5
t-88.5 31.5q-55 0 -84.5 -30.5t-28.5 -81.5q1 -41 35.5 -69.5t79.5 -28.5q46 0 80 28.5t36 69.5zM346 190q1 53 -38.5 94.5t-95.5 41.5q-54 0 -94 -45t-40 -99q0 -59 39 -97.5t95 -38.5q59 0 96 42t38 102z" />
    <glyph glyph-name="nine" unicode="9" horiz-adv-x="429" 
d="M402 328q-2 -153 -59 -240q-59 -91 -161 -89q-75 1 -120 50q-36 40 -34 99h49q1 -16 6 -31q10 -34 36 -52q20 -14 57 -14q28 0 52 11q49 22 75 64q34 54 47 192q-20 -43 -65 -71q-38 -24 -87 -24q-61 0 -99 32q-69 57 -69 185q0 79 43 135q52 67 129 67q99 0 149 -74
q54 -80 51 -240zM331 430q1 75 -35 119q-33 40 -86 40q-51 0 -89 -43.5t-38 -103.5q0 -71 29 -117q32 -51 88 -51q60 0 97 50q33 45 34 106z" />
    <glyph glyph-name="colon" unicode=":" horiz-adv-x="508" 
d="M495 250q-7 -139 -97 -204q-68 -49 -163 -47q-108 2 -167.5 58.5t-59.5 163.5q0 75 27 120q15 26 60 50q18 10 94 10v-34q-140 7 -140 -136q0 -23 4 -50q14 -87 80 -119q44 -21 116 -21q58 0 94 20q92 51 110 153q4 25 4 53q0 113 -47 179q-21 -36 -75 -51
q-40 -11 -74 -7q-57 7 -93 49q-23 27 -23 80q0 25 9 39q-4 0 -15 1t-16 1h-23v37q101 -2 156 -12q83 -15 132 -56q116 -96 107 -277zM386 469q-23 41 -85 64q-51 19 -109 20q-8 -18 -8 -38q0 -49 39 -76q32 -23 82 -16q54 7 81 46z" />
    <glyph glyph-name="semicolon" unicode=";" horiz-adv-x="623" 
d="M593 215q-5 -81 -33 -130.5t-84 -69.5q-41 -14 -113 -15v40q83 0 110 19q51 35 65 85t14 106q0 59 -17 104q-23 62 -72 92q-34 21 -81 21q-28 0 -52 -10q-18 -8 -36 -15q-21 -10 -44 -28v-16q33 -1 82 -9q57 -25 76.5 -85t9.5 -132q-9 -66 -50 -114q-52 -60 -154 -58
q-77 1 -130 42q-21 16 -35 52.5t-14 75.5q0 25 7 46h-19v48l187 158q-7 15 -20 34q-18 9 -47 9q-52 0 -55 -67q-1 -17 0 -46h-43v53q1 101 104 101q63 0 92 -43q11 6 42 25t92 19q62 0 92 -13q57 -25 84 -65q17 -25 32 -78t10 -136zM369 137q11 42 11 81q0 66 -28 104
t-81 38h-73l-149 -115h36q-10 -22 -10 -62q0 -45 14 -74q29 -60 116 -67q59 -5 103 20q48 27 61 75z" />
    <glyph glyph-name="less" unicode="&#x3c;" horiz-adv-x="533" 
d="M518 132q2 -103 -33 -170q-23 -44 -79.5 -72.5t-123.5 -29.5q-99 -2 -166 50.5t-88 153.5q-16 76 -13 148q1 34 5 56q8 41 28 70q22 33 50 44q-5 51 17 82q31 43 97 43q55 0 72 -45q21 47 86 44q49 -2 73 -41q21 -32 21 -81q0 -21 -4 -41h-320q-4 -68 -1 -95
q8 -73 54 -111q29 -24 81 -24q63 0 98 29q25 21 39 57q11 30 9 56h40q0 -81 -48 -135q-44 -49 -138 -49q-34 0 -59 7q-76 22 -107 103q-15 40 -15 96q0 30 5 53q-24 -26 -35 -84q-3 -19 -4 -74q-1 -81 33 -157q23 -51 72 -84q40 -27 108 -29q95 -3 159 58q26 25 40 84
q11 46 10 88h37zM418 385q3 38 -15.5 59t-42.5 21q-22 0 -39 -20q-20 -24 -16 -60h113zM253 385q2 11 2 21q0 59 -55 59q-24 0 -41 -19t-17 -46q0 -8 1 -15h110z" />
    <glyph glyph-name="equal" unicode="=" horiz-adv-x="0" 
d="M25 -16q4 -91 -42 -133q-35 -32 -89 -32q-47 0 -79 23q-41 29 -41 87q0 23 8 44q27 69 105 69v-44q-28 1 -47 -20t-19 -50q0 -38 31 -54q19 -10 43 -10q34 0 53 18q24 23 28 55q1 24 1 47h48z" />
    <glyph glyph-name="greater" unicode="&#x3e;" horiz-adv-x="504" 
d="M485 248q7 -61 -3 -115q-11 -58 -46.5 -96t-77.5 -38q-104 0 -104 93q0 10 1 20q5 34 33 61q22 21 22 32q0 17 -57 17q-60 0 -60 -16q0 -9 30 -45q11 -14 15 -20q6 -12 9 -29q2 -11 2 -20q0 -91 -111 -92q-49 -1 -82 37.5t-42 104.5q-9 67 4 120q15 63 40 90h-49v37h30
q-2 47 29 82t94 35q18 0 29 -3q41 -12 64 -49q20 31 54 47q13 6 38 6q43 0 68 -14q59 -34 54 -129h-34q15 -14 31 -51.5t19 -64.5zM422 389q1 4 1 10q0 22 -16 42q-20 25 -53 25q-32 0 -52 -20.5t-19 -56.5h139zM226 389q3 32 -15 54q-15 18 -33 20q-44 5 -63 -8
q-30 -21 -30 -66h141zM448 212q-1 42 -15 80q-18 50 -51 59q-7 1 -75 1h-105q-73 1 -79 -2q-38 -18 -58 -77q-14 -40 -12 -91q3 -94 51 -132q12 -9 36 -9q58 0 65 42q5 33 -40 82q-17 18 -17 47q5 52 107 52q41 0 69 -13t30 -36q3 -37 -22 -57q-36 -29 -36 -63q0 -6 4 -24
q7 -31 53 -31q11 0 18 3q80 33 77 169z" />
    <glyph glyph-name="question" unicode="?" horiz-adv-x="733" 
d="M717 182q0 -72 -12 -107q-25 -72 -98 -72q-45 0 -79 35q-29 30 -41 106q-5 34 -5 65q0 46 14 116q7 33 21 75q19 53 22 65h-111v38l89 89h-102v40h170v-34l-93 -91h96v-40q-33 -60 -50 -137q-13 -62 -13 -120q0 -36 5 -72q14 -94 78 -94q35 0 54 32q16 27 16 106h39z
M482 255q0 -133 -90 -207q-60 -49 -144 -49q-91 0 -157 60q-73 67 -78 174q-5 97 40 169.5t122 95.5q95 39 133 72q35 29 34 62h56q-6 -50 -45 -77q-29 -17 -79 -49q40 1 86 -18q34 -14 68 -53q54 -62 54 -180zM440 236q4 229 -182 232q-89 1 -148 -58q-55 -56 -52 -177
q2 -76 58 -133.5t130 -57.5q87 0 143 63q50 56 51 131z" />
    <glyph glyph-name="at" unicode="@" horiz-adv-x="345" 
d="M325 369q1 -47 -22 -76q-17 -21 -70 -53q-14 -6 -38 -27q-6 -9 -6 -38v-47h-42v80q0 23 20 38q2 2 38 22q79 44 79 99q0 43 -31 71q-27 25 -81 27q-60 2 -88 -26.5t-28 -62.5q0 -24 14 -44h-42q-11 14 -12 45q-1 48 46 91q39 35 109 35q91 0 130 -52q23 -31 24 -82z
M190 2h-44v62h44v-62z" />
    <glyph glyph-name="A" unicode="A" horiz-adv-x="0" 
d="M-99 507l-44 -1l-2 160h45z" />
    <glyph glyph-name="B" unicode="B" horiz-adv-x="495" 
d="M511 576q0 -23 -16.5 -39.5t-39.5 -16.5t-40 16.5t-17 39.5t17 39.5t40 16.5t39.5 -16.5t16.5 -39.5zM238 576q0 -23 -16 -39.5t-39 -16.5t-39.5 16.5t-16.5 39.5t16.5 39.5t39.5 16.5t39 -16.5t16 -39.5zM482 255q0 -133 -90 -207q-60 -49 -144 -49q-91 0 -157 60
q-73 67 -78 174q-5 97 40 169.5t122 95.5q95 39 133 72q35 29 34 62h56q-6 -50 -45 -77q-29 -17 -79 -49q40 1 86 -18q34 -14 68 -53q54 -62 54 -180zM484 576q0 29 -31 29q-29 0 -29 -30t31 -30q29 0 29 31zM212 576q0 29 -30 29t-30 -30t31 -30q29 0 29 31zM440 236
q4 229 -182 232q-89 1 -148 -58q-55 -56 -52 -177q2 -76 58 -133.5t130 -57.5q87 0 143 63q50 56 51 131z" />
    <glyph glyph-name="C" unicode="C" horiz-adv-x="445" 
d="M547 421q-16 -17 -28 -27q-4 5 -21 24q-47 47 -122 47q-13 0 -28 -1q-30 -3 -63 -20t-47 -39q-1 -3 -1 -12q85 3 131 -36q43 -37 57 -119q12 -71 -2.5 -132.5t-64.5 -91.5q-24 -15 -61 -15q-31 0 -48.5 12.5t-20.5 14.5q-9 9 -14 25q-17 -53 -86 -52q-63 1 -90 57
q-13 27 -13 70q0 46 16 72h-19v49q45 43 170 158q1 13 1 32q-4 29 -43 29q-22 0 -35 -11q-27 -22 -23 -107h-41q-3 76 11 107q24 52 84 52q73 0 89 -51q50 51 143 51q112 0 169 -86zM382 242q-11 43 -23 63q-25 40 -77 50q-30 2 -89 1l-134 -121h29q2 -7 2 -16t-2 -17
q-7 -11 -16 -34q-6 -34 -1 -65q10 -59 64 -62q17 -1 34 14t19 41t2 117h41q0 -87 4 -108q10 -49 41 -60q12 -4 25 -4q38 0 64 37q24 34 24 102q0 35 -7 62z" />
    <glyph glyph-name="D" unicode="D" horiz-adv-x="289" 
d="M272 0q-15 0 -28 -1t-21 -1v40q-24 -41 -112 -40q-32 0 -61 22.5t-39 53t-10 71.5q0 67 25 100q44 58 134 58q31 0 64 -8q-1 27 0 78q3 57 -24 78q-18 13 -57 14q-52 1 -75 -23q-19 -20 -17 -57q-28 -2 -44 0q-5 48 27 82q37 38 107 38t101 -32q24 -25 26 -77t2 -102
q-1 -88 0 -254q-1 -14 2 -40zM224 253q-37 12 -79 10q-58 -2 -82 -45q-17 -30 -17 -70q0 -105 85 -105q58 0 80 41q12 22 12 55q0 21 1 63v51z" />
    <glyph glyph-name="E" unicode="E" horiz-adv-x="258" 
d="M247 126q2 -75 -22 -111q-28 -43 -100 -43q-59 0 -91 39t-29 112q3 64 40 122q25 39 67 88h-94v39l90 71h-91v42h156v-42l-85 -69h85v-38q-34 -29 -67 -75q-38 -55 -52 -106q-5 -17 -5 -36q0 -36 15 -71q11 -25 54 -32q36 -6 66 19q22 17 21 91h42z" />
    <glyph glyph-name="F" unicode="F" horiz-adv-x="425" 
d="M543 424q-5 -5 -31 -25q-22 29 -50 46q-32 19 -88 19q-33 0 -59.5 -9.5t-33.5 -12.5q-17 -8 -41 -27v-17q33 -1 82 -9q57 -25 76.5 -85t9.5 -132q-9 -66 -50 -114q-52 -60 -154 -58q-77 1 -130 42q-21 16 -35 52.5t-14 75.5q0 25 7 46h-19v48l187 158q-7 15 -20 34
q-18 9 -47 9q-52 0 -55 -67q-1 -17 0 -46h-43v53q1 101 104 101q63 0 92 -43q11 6 42 25t92 19q63 0 92 -13q61 -27 86 -70zM359 137q11 42 11 81q0 66 -28 104t-81 38h-73l-149 -115h36q-10 -22 -10 -62q0 -45 14 -74q29 -60 116 -67q59 -5 103 20q48 27 61 75z" />
    <glyph glyph-name="G" unicode="G" horiz-adv-x="515" 
d="M491 142q-23 -98 -91 -130q-25 -12 -61 -12q-37 0 -58 16q-15 12 -21 18.5t-12 23.5q-13 -28 -44 -45q-27 -14 -59 -14q-50 0 -83 34q-38 39 -47 115q-3 25 -3 53q0 98 33 147q17 25 23 32q18 21 45 35q35 18 92 18v-40q-51 3 -87.5 -24t-49.5 -72t-11 -113t27 -108
q21 -35 63 -35q26 0 47.5 16.5t26.5 44.5q4 19 4 80v86h47q0 -148 3 -166q10 -58 77 -60q42 -1 76 49q19 28 27 81q4 26 4 60q0 136 -46 201q-6 -20 -32.5 -38.5t-56.5 -21.5q-44 -5 -80 15q-47 26 -47 84q0 19 6 36q7 22 15 44q3 15 0 36l-30 15l14 30q158 -23 247 -179
q28 -48 42 -117q10 -47 10 -101q0 -52 -10 -94zM366 434q10 13 10 27q0 24 -24 51q-28 40 -94 69q2 -19 -5 -43q-16 -23 -16 -60q0 -43 48 -63q9 -4 23 -4q40 0 58 23z" />
    <glyph glyph-name="H" unicode="H" horiz-adv-x="426" 
d="M405 252q4 -23 4 -51q0 -81 -31 -131q-22 -35 -69.5 -57.5t-109.5 -9.5q-29 6 -50 15q-36 15 -53 12q-43 -7 -45 -24l-35 1q-5 44 -3 83q3 55 23 97q7 14 75 81q54 53 57 85q2 24 2 38q0 77 -62 77q-38 0 -49 -48q-5 -25 -4 -82h-37q-1 39 0 63q3 105 95 105q70 0 89 -71
q5 -13 4 -32q-1 -32 -1 -35q2 -36 -17 -68q-9 -14 -41 -52q-4 -4 -36 -31q-25 -21 -38 -45q-21 -38 -23 -123q23 15 27 17q12 5 36 5q10 0 37 -10q33 -13 46 -16q19 -4 42 -4q49 0 75 19q57 43 57 131q0 33 -9 69q-15 59 -73 59h-83q-1 56 6 99q5 30 29 61q21 27 63 27
q28 0 52 -14q46 -27 42 -137h-36q4 112 -56 112q-69 0 -62 -113h59q40 0 72 -35q24 -26 31 -67z" />
    <glyph glyph-name="I" unicode="I" horiz-adv-x="504" 
d="M485 185q-17 -102 -102 -154q-31 -19 -85 -28q-59 -9 -116 3q-46 5 -84 32q-85 59 -85 183q0 112 66 157q12 8 59 15h85q3 46 -36 67q-30 16 -69 -2q-45 -20 -40 -66h-40q-7 49 31 84q31 29 65 30q108 3 119 -71q16 62 89 70q88 10 117 -54q16 -35 4 -60q-22 -1 -37 -1
q9 32 -7 51q-19 23 -66 24q-26 0 -48 -19q-23 -22 -24 -53h113q44 -4 65 -31q32 -41 32 -112q0 -30 -6 -65zM300 245h-98q-9 -40 6 -64q12 -19 40 -19q18 0 34 9q23 13 23 49q0 17 -5 25zM452 227q2 107 -51 128q-15 -20 -43 -55q-5 -8 -23 -28q8 -27 8 -52q0 -49 -29.5 -72
t-65.5 -23t-63 22q-24 19 -24 71q0 14 2 26q4 37 42 38q34 -2 93 0q14 15 60 76h-192q-91 0 -109 -85q-5 -21 -5 -45q0 -60 26 -113q34 -71 170 -74q87 -2 147 51q55 49 57 135z" />
    <glyph glyph-name="J" unicode="J" horiz-adv-x="418" 
d="M540 429q-9 -8 -32 -26q-46 56 -132 62q-22 1 -52.5 -8.5t-45.5 -22.5q-23 -21 -43 -49q40 2 68 -7q45 -15 65 -51q25 -46 25 -125q0 -81 -37 -130.5t-92 -63.5q-31 -8 -66 -8q-66 0 -100 22q-25 16 -34 26q-20 21 -34 60q-11 31 -11 139q0 21 2 56h37q0 -27 32 -27
q37 0 52 22q33 50 53 98q0 42 -20 59q-10 10 -35 10t-35 -10q-27 -27 -24 -90h-43q-4 60 19 98q28 43 87 43q38 0 56 -13q26 -19 28 -50q11 13 51 42q37 22 92 22q50 0 86 -16q52 -22 83 -62zM348 213q-1 78 -33 110q-29 29 -95 25q-10 -21 -21 -38q-27 -41 -51 -57
q-18 -12 -50 -12q-23 0 -36 7q-1 -118 19 -149t44 -43q28 -14 78 -14q37 0 71 18q41 21 59 62q16 36 15 91z" />
    <glyph glyph-name="K" unicode="K" horiz-adv-x="738" 
d="M713 246q-5 -103 -32.5 -158t-72.5 -76q-41 -19 -83 -7q-66 19 -66 110q15 1 39 0q0 -49 30 -66q16 -9 34 -9q30 0 53 23q28 27 44 82q18 59 16 127q-6 193 -73 193q-26 0 -36 -25q-5 -13 -8 -52q-4 -46 0 -152q-21 -1 -41 0v75q-2 71 -11 109q-11 45 -38 45
q-32 0 -36 -70q-3 -55 4 -131q4 -124 -43 -198q-37 -59 -140 -67q-67 -5 -120 21q-37 18 -65 12q-20 -4 -24 -29h-31q-5 109 35 151q9 9 36 38q-29 26 -29 109q0 22 3 44q4 37 23 74t41 53q46 34 109 34q80 0 114 -37q33 33 76 74h51q-33 -29 -99 -100q7 -6 20 -30
q10 51 30 69q28 25 61 20q39 -6 50 -57q6 27 14 38q17 24 58 24q76 0 100 -133q10 -55 7 -128zM394 247q-2 50 -11 81q-11 40 -42 85q-35 51 -109 51q-38 0 -70 -18q-60 -35 -64 -131q-3 -89 38 -122q26 -21 58 -21q40 0 61 33q15 31 12 99h38q1 -16 -1 -67q-6 -59 -52 -89
q-35 -18 -79 -12q-38 5 -61 30q-15 -12 -50 -59q-10 -17 -15 -49q19 9 43 9q15 0 30 -4q84 -22 112 -22q16 0 31 2q84 13 111 81q23 56 20 123z" />
    <glyph glyph-name="L" unicode="L" horiz-adv-x="531" 
d="M501 162q-12 -64 -46 -107t-79 -53q-39 -9 -90 9q-42 15 -68 41q-7 -32 0 -70q-15 -2 -50 0q-14 84 3 136q10 32 37 68q31 40 37 52q6 26 6 53q0 95 -67 100q-59 5 -86 -44q-19 -33 -26 -107q-5 -50 4 -125q6 -49 68 -63q1 -7 0 -51q-64 1 -92 35q-22 27 -31 89
q-6 38 -1 125q3 56 16 92q23 64 75 86q28 12 64 12q52 0 88 -28q41 -33 41 -114q0 -12 -1 -25q-4 -48 -15 -67q-6 -10 -36 -46q-22 -26 -30 -56q30 -17 61 -33q44 -22 73 -18q49 7 72 53t27 115q7 104 -8 172q-17 80 -60 133q-47 59 -148 59q-57 0 -88.5 -20.5t-52 -53
t-22.5 -59.5h-51q5 51 28 83q52 72 123 87q37 8 75 8q68 0 117 -25q76 -39 116 -149q25 -70 25 -182q0 -69 -8 -112z" />
    <glyph glyph-name="M" unicode="M" horiz-adv-x="508" 
d="M487 248q-7 -151 -121 -219q-50 -29 -128 -29q-48 0 -90 12q-62 18 -98 70q-33 49 -35 111q-2 84 27.5 124.5t75.5 40.5h107q3 29 -14 51q-21 27 -59 27q-26 0 -45 -19q-24 -22 -24 -62h-43q-5 64 44 102q23 18 75 18q49 0 67 -23q-10 41 -1 56q6 25 28 57q16 26 13 36
l-28 17l20 25q133 -52 197 -194q37 -83 32 -201zM388 428q13 27 0 55q-23 50 -80 86q-44 -35 -44 -84q0 -44 30 -66q22 -16 43 -16q39 0 51 25zM443 295q-1 68 -19 109q-28 -31 -56 -40q-13 -4 -31 -4q-46 0 -69 24v-65h-146q-28 0 -44 -33.5t-16 -79.5q0 -60 26 -97
q22 -31 63 -49t87 -18q107 0 161 77q45 67 44 176z" />
    <glyph glyph-name="N" unicode="N" horiz-adv-x="531" 
d="M512 310q9 -77 -9 -158q-16 -72 -59 -110q-48 -42 -110 -42q-13 0 -26 2v40q37 -6 77 9q37 14 59 57.5t26 92.5q7 98 -8 157q-28 107 -118 107q-54 0 -92 -67q-10 -18 -16 -42.5t-11 -49.5q68 0 88 -18q33 -29 36 -100q3 -56 -16 -100q-21 -49 -68 -73q-37 -19 -82 -15
q-66 6 -99 35q-40 36 -56 87q-18 59 -9 126q12 88 46 107h-50v38h33q-3 39 17 71q26 41 81 42q83 1 89 -74q10 32 42 54t76 21q70 -2 112 -57q37 -48 47 -140zM199 393q7 72 -53 72q-35 0 -49 -31q-7 -16 -7 -41h109zM307 163q5 62 -19 88q-21 23 -70 20l-11 -65h-33
q2 31 10 86q5 22 11 63h-72q-35 -14 -51 -71q-13 -46 -10 -96q6 -91 56 -125q32 -22 70 -22q50 0 82 31t37 91z" />
    <glyph glyph-name="O" unicode="O" horiz-adv-x="528" 
d="M513 253q-1 -72 -20 -135q-25 -83 -92 -110q-18 -8 -43 -8q-41 0 -67 22q-21 18 -35 46q-14 -38 -59 -59q-20 -9 -46 -9q-51 0 -83 29q-43 39 -53 120q-12 101 7 170q7 25 13 38q13 28 34 46q39 34 106 34q39 -1 101 0v-36h-113q-51 -9 -74 -37t-31 -68q-11 -55 -5 -118
q7 -79 39 -113q23 -25 60 -25q31 0 50 19q33 33 33 109v50q-1 33 -1 48h48v-112q0 -54 16 -77q25 -36 61 -36q12 0 24 4q60 22 80 113q14 61 9 149q-4 84 -23 135q-29 80 -83 117t-118 37q-36 0 -75 -11q-45 -13 -74 -50q-24 -29 -31 -63h-40q21 79 88 126q47 33 129 33
q78 0 127 -26q69 -37 106 -126.5t35 -225.5z" />
    <glyph glyph-name="P" unicode="P" horiz-adv-x="518" 
d="M540 568q-38 -37 -95 -96q4 -5 12 -17q9 -18 9 -45q0 -26 -11 -46q35 -44 35 -122q0 -28 -5 -57q-17 -102 -102 -154q-31 -19 -85 -28q-59 -9 -116 3q-46 5 -84 32q-85 59 -85 183q0 112 66 157q12 8 59 15h82q4 49 -32 67q-13 7 -37 5q-22 -1 -35 -7q-34 -15 -38 -70
q-4 0 -38 -2q-6 52 30 88q31 31 65 32q108 3 118 -71q7 33 38 53q24 15 51 18q33 4 72 -11q18 17 74 73h52zM423 379q12 36 -6 60q-22 30 -69 28q-24 -1 -45 -22.5t-22 -51.5q-1 -69 58 -68q67 1 84 54zM452 227q2 67 -19 100q-16 -22 -42 -30q-29 -9 -52 -9q-60 0 -87 47
q-6 11 -9 23h-77q-91 0 -109 -85q-5 -22 -5 -46q0 -61 26 -110q38 -73 170 -76q87 -2 147 51q55 49 57 135z" />
    <glyph glyph-name="Q" unicode="Q" horiz-adv-x="0" 
d="M-48 -158h-87l-54 18q-30 8 -66 10q-47 2 -126 -21q-39 -11 -64 -11q-23 0 -50 19v49q13 -13 43 -21q11 -3 31 1q16 4 32 7q77 20 117 21q52 2 123 -21q25 -8 56 -6v188l45 48v-281z" />
    <glyph glyph-name="R" unicode="R" horiz-adv-x="825" 
d="M805 0q-15 0 -29 -1t-22 -1v40q-8 -18 -39.5 -29t-70.5 -11q-31 0 -60.5 22.5t-39.5 53t-10 71.5q0 67 25 100q45 58 134 58q32 0 65 -8v78q3 57 -25 78q-18 13 -57 14q-51 1 -74 -23q-20 -20 -18 -57q-27 -2 -44 0q-5 48 27 82q37 38 107 38q71 0 101 -32q24 -25 28 -78
v-101v-254q0 -14 2 -40zM524 265q14 -77 -6 -143q-38 -124 -143 -124q-51 0 -77 29q-20 22 -24 40q-3 -17 -27 -39q-32 -30 -85 -30q-123 0 -144 142q-10 64 5 128q11 50 36 84q22 30 65 41h124q0 40 -30 62q-16 10 -52 10q-28 0 -44 -10q-31 -19 -29 -68h-42q-4 58 32 90
q33 29 85 29q30 0 56 -8q48 -16 54 -59q11 38 61 59q21 9 56 9t59 -11q47 -21 47 -77q0 -10 -2 -20.5t-5 -15.5q-5 -11 -15 -19q33 -33 45 -99zM758 253q-39 12 -80 10q-59 -2 -82 -45q-16 -29 -16 -70q0 -105 84 -105q57 0 80 41q13 23 13 55q0 21 1 63v51zM455 435
q-14 28 -64 30q-36 1 -61.5 -19t-26.5 -53h97q20 0 32 -2q7 -2 20 -8q15 26 3 52zM489 218q-8 97 -57 130q-13 9 -74 8h-155q-79 1 -86 -4q-49 -37 -57 -127q-7 -72 15 -122q26 -61 83 -61q48 0 73 33q20 26 21 63v117h50v-117q2 -96 76 -96q66 0 95 73q20 53 16 103z" />
    <glyph glyph-name="S" unicode="S" horiz-adv-x="0" 
d="M-61 607q10 -18 10 -40q0 -54 -40 -70q-17 -10 -56 -9q-32 6 -49 20q-10 5 -17 24.5t-4 35.5q6 31 29 46h-80q-31 -1 -61 -3q-23 -1 -35 -6q-29 -11 -50 -40q-17 -22 -18 -73h-49q0 56 13 85q20 44 60 63q53 26 155 23q56 -2 67 -2q34 -2 58 -9q50 -14 67 -45zM-98 558
q0 36 -37 36q-16 0 -27 -12t-10 -24q3 -30 37 -30q37 0 37 30z" />
    <glyph glyph-name="T" unicode="T" horiz-adv-x="518" 
d="M499 329q8 -73 -1 -136q-10 -68 -45 -130q-13 -23 -42 -41q-35 -22 -76 -23q-70 -1 -90 46q-6 -21 -32.5 -33.5t-57.5 -12.5q-101 0 -130 113q-16 62 -16 122q0 30 4 61q15 117 82 153q28 15 66 15q44 0 60 -15q22 -21 12 -66q-17 -10 -40 -34q-5 -11 -5 -22
q0 -37 31 -48q14 -5 34 -5q41 0 62 24q18 21 18 53q0 24 -8 42.5t-20 24.5q-18 12 -60 11v34q63 4 87 -20q36 -36 36 -88q0 -59 -39 -91q-30 -24 -81 -24q-34 0 -55 10q-43 21 -43 73q0 16 6.5 31t11.5 22q10 12 27 20q1 5 1 9q0 24 -32 24q-42 0 -66.5 -26.5t-35.5 -69.5
q-12 -47 -10 -120q2 -59 20 -107q25 -65 76 -66q45 -1 64 30q13 23 12 60v71h40q-2 -51 0 -92q4 -69 73 -69q46 0 77 38t42 111q12 84 5 127q-6 36 -11 71q-10 45 -27 79q-60 117 -177 117q-59 0 -103 -25q-54 -31 -68 -92h-37q2 37 35 79.5t79 58.5q42 14 88 14
q125 0 189 -87q56 -78 70 -201z" />
    <glyph glyph-name="U" unicode="U" horiz-adv-x="527" 
d="M503 329q8 -75 -3 -141q-12 -75 -45 -127q-29 -47 -73 -58q-15 -4 -30 -4q-34 0 -56 16q-26 18 -26 53q0 29 27.5 49.5t27.5 33.5q0 17 -64 17q-37 0 -45 -2q-23 -4 -23 -22q0 -7 26 -30t26 -47q0 -34 -24.5 -51t-57.5 -17q-95 0 -129 112q-16 52 -16 120q0 32 4 64
q14 117 80 153q28 15 66 15q44 0 60 -15t16 -36q0 -15 -11 -28q-10 -6 -32 -38q-6 -13 -6 -26q0 -25 19 -40q14 -11 44 -11t45 13q29 24 29 65q0 21 -7 37q-6 13 -11 19q-9 12 -22 18q-9 4 -44 4v36q59 3 82 -20q34 -34 38 -77q7 -68 -39 -109q-26 -23 -71 -23q-40 0 -65 16
q-35 23 -35 70q0 20 7 37q4 10 33 40q6 6 6 12q0 21 -39 21q-36 0 -58 -23q-26 -28 -39 -79q-15 -58 -11 -121q4 -62 23 -104q28 -59 80 -60q42 -1 42 28q0 8 -5 16q-1 1 -31 33q-15 16 -15 37q0 52 111 49q107 -3 106 -51q0 -11 -8 -19.5t-17 -17t-27 -31.5q-4 -8 -4 -15
q0 -31 38 -29q41 2 68 37q36 46 45 113q11 83 5 126q-6 42 -10 63q-8 36 -20 67q-24 60 -76 98t-115 38q-61 0 -106 -29q-49 -32 -59 -89h-35q-1 37 33 80t78 58q40 14 84 14q124 0 191 -89q57 -76 70 -199z" />
    <glyph glyph-name="V" unicode="V" horiz-adv-x="523" 
d="M504 142q-22 -97 -91 -130q-25 -12 -61 -12q-37 0 -58 16q-15 12 -21 18.5t-12 23.5q-12 -27 -45 -45q-25 -13 -58 -13q-54 0 -89 34q-38 37 -47 113q-6 52 6.5 97.5t35.5 72.5h-51v39h27q-4 60 32 96q25 25 69 25q14 0 32 -3q24 -4 39 -23q0 44 4 57q18 61 18 67
q0 8 -1 17l-30 13l12 28q160 -23 248 -179q26 -46 41 -117q10 -46 10 -100q0 -53 -10 -95zM379 434q11 14 11 30q0 25 -22 50q-29 43 -97 71q2 -23 -5 -47q-16 -23 -16 -60q0 -43 48 -63q9 -4 22 -4q41 0 59 23zM198 358q0 55 -22 71q-13 10 -38 10q-24 0 -39.5 -15.5
t-15.5 -65.5h115zM468 172q10 61 0 135q-11 82 -42 126q-6 -20 -32.5 -38.5t-55.5 -21.5q-39 -4 -68 7q-5 2 -32 23v-86h-111q-29 -8 -49 -59q-10 -27 -12 -80q-2 -58 25 -102q21 -35 65 -35q28 0 50.5 16.5t27.5 44.5q4 20 4 80v86h47q0 -148 3 -166q10 -58 77 -60
q43 -1 76 49q18 28 27 81z" />
    <glyph glyph-name="W" unicode="W" horiz-adv-x="532" 
d="M516 76q-2 -17 -11 -52q-10 -28 -14 -35t-19 -25q-38 -46 -97 -62q-37 -10 -67 -13q-56 -5 -104 3q-69 12 -101 35q-71 51 -84 138q-6 42 -6 85q0 81 20 133t79 82q26 13 93 13h236q0 36 -26 58.5t-99 26.5q-79 4 -108 -1q-83 -14 -83 -75q-15 -1 -43 -1q1 123 202 120
q91 -1 144 -29q46 -24 57 -96q3 -21 2 -40h-205q-103 0 -132 -9q-78 -24 -89 -108q-5 -38 -3 -89q3 -67 23.5 -117t91.5 -75q37 -13 100 -13q64 0 110 22q37 17 62 51q24 31 26 72q8 0 14 1h31z" />
    <glyph glyph-name="X" unicode="X" horiz-adv-x="523" 
d="M506 265q0 -94 -15 -142q-25 -80 -86 -112q-23 -12 -60 -12q-41 0 -63 16q-28 20 -37 48q-13 -37 -53 -54q-24 -10 -50 -10q-46 0 -77 27q-36 31 -50 100q-9 47 3 122q9 54 35 79q17 16 22 19q13 9 33 12q41 7 114 4q0 43 -9 60q-14 27 -61 27q-34 0 -53 -14
q-31 -22 -34 -91q-16 -2 -37 -1q0 62 17 89q25 40 77 53q35 9 73 -3q29 -9 50 -37q14 -18 18 -51v-70h-140q-44 -11 -60.5 -63.5t-9.5 -105.5q12 -82 47 -104q15 -9 38 -9q37 0 61 26q20 22 22 70q1 21 1 96h44q0 -42 1 -84q3 -58 21 -82q20 -27 65 -27q22 0 38 9
q54 30 70 133q8 54 4 119q-6 93 -26 147q-30 80 -87 119q-43 29 -116 29q-53 0 -94 -17q-71 -30 -89 -87h-37q10 31 22 48q26 37 65 59q56 32 136 32q76 0 125 -28q71 -40 105 -121q37 -88 37 -218z" />
    <glyph glyph-name="Y" unicode="Y" horiz-adv-x="572" 
d="M555 290q2 -18 2 -38q0 -92 -28 -150q-30 -63 -85.5 -84.5t-101.5 -16.5v38q35 0 51 9q-4 9 -12 14q-11 6 -12 7q-13 17 -16 33q-8 -42 -57 -77q-39 -28 -93 -25q-73 4 -108 32q-50 40 -71 127q-14 57 -9 139q5 90 40 135q23 30 38 42q25 22 59 28q26 5 60 4v-42
q-43 0 -66 -9q-30 -12 -51 -44q-35 -53 -37 -139q-1 -68 16 -126.5t53 -83.5q32 -22 76 -22q35 0 59 14q50 30 61 93q12 69 -4 109q-11 29 -33 39q-13 6 -39.5 7l-26.5 1l-4 -33v-49h-39v79q8 48 23 108q35 63 76 83q35 16 109 15q84 -1 133 -77q26 -40 37 -140zM512 218
q7 41 -4 106q-17 96 -72 127q-27 15 -76 15q-39 0 -62 -10q-33 -14 -54 -53q-16 -31 -19 -61q48 -1 63 -3q32 -4 47 -18q37 -34 33 -94q25 34 73 34q12 0 22 -3q24 -6 49 -40zM490 157q0 26 -17 42t-42 16q-52 0 -52 -64q0 -38 31 -56q19 -5 25 -30q55 28 55 92z" />
    <glyph glyph-name="bracketleft" unicode="[" horiz-adv-x="868" 
d="M906 -21q0 -71 -44 -114q-40 -39 -115 -39q-31 0 -59 9q-55 18 -77 57q-16 28 -16 62q0 27 13 47q-17 3 -66 25q-63 36 -77 124q-4 26 -4 50q0 74 36 126q31 44 77 57q36 10 69 10h154q1 18 -10.5 36t-22.5 21q-26 8 -35 10q-22 4 -55 5q-83 2 -111.5 -20t-27.5 -52h-38
q-4 13 -12 32q-35 41 -103 41q-16 0 -34 -2q-30 -3 -63 -20t-47 -39q-1 -3 -1 -12q85 3 131 -36q43 -37 57 -119q12 -71 -2.5 -132.5t-64.5 -91.5q-24 -15 -61 -15q-31 0 -48.5 12.5t-20.5 14.5q-9 9 -14 25q-17 -53 -86 -52q-63 1 -90 57q-13 27 -13 70q0 46 16 72h-19v49
q45 43 170 158q1 13 1 32q-4 29 -43 29q-22 0 -35 -11q-27 -22 -23 -107h-41q-3 76 11 107q24 52 84 52q73 0 89 -51q50 51 143 51q98 0 140 -50q33 50 152 50q105 0 143 -48q19 -24 24 -47q4 -17 4 -60h-101q-95 -1 -96 -2q-58 -5 -89 -30q-40 -32 -43 -102q-3 -52 14 -95
q20 -52 63 -68t119 -13q92 4 131 32v-45q-45 -30 -185 -30q-15 -27 -6 -71q6 -28 37 -44q27 -14 64 -13q70 2 95 41q18 28 18 54q0 7 -2 13q23 -1 46 0zM382 242q-11 43 -23 63q-25 40 -77 50q-30 2 -89 1l-134 -121h29q2 -7 2 -16t-2 -17q-7 -11 -16 -34q-6 -34 -1 -65
q10 -59 64 -62q17 -1 34 14t19 41t2 117h41q0 -87 4 -108q10 -49 41 -60q12 -4 25 -4q38 0 64 37q24 34 24 102q0 35 -7 62z" />
    <glyph glyph-name="bracketright" unicode="]" horiz-adv-x="340" 
d="M178 432q0 -31 -22 -52.5t-53 -21.5t-53 21.5t-22 52.5t22 53t53 22t53 -22t22 -53zM311 507l-233 -510l-49 3l236 507h46zM312 74q0 -31 -22 -53t-53 -22t-53 22t-22 53t22 52.5t53 21.5t53 -21.5t22 -52.5zM148 432q0 19 -13 32t-32 13t-32 -13t-13 -32q0 -18 13 -31
t32 -13t32 13t13 31zM282 74q0 18 -13 31t-32 13t-32 -13t-13 -31q0 -19 13 -32t32 -13t32 13t13 32z" />
    <glyph glyph-name="asciicircum" unicode="^" horiz-adv-x="240" 
d="M293 664q-60 -54 -96 -109q-29 -45 -58 -118q-35 -87 -36 -199q-1 -83 25 -169q39 -130 143 -264h-52q-123 171 -151 317q-12 60 -12 119q0 62 13 122q39 182 166 301h58z" />
    <glyph glyph-name="underscore" unicode="_" horiz-adv-x="0" 
d="M-83 599q-1 -61 -30 -96h-46q15 16 25.5 52.5t7.5 57.5q-13 78 -82 79q-31 0 -50 -25.5t-19 -61.5q0 -18 5 -36q10 -21 29 -24q22 -4 29 12.5t7 66.5l43 -1q0 -45 -1 -57q-4 -47 -41 -61q-27 -11 -64 3q-53 20 -53 95q0 39 11 65q30 70 108 70q69 0 101 -48
q21 -31 20 -91z" />
    <glyph glyph-name="grave" unicode="`" horiz-adv-x="238" 
d="M209 266q2 -171 -81 -233q-49 -37 -127 -33v42q39 -1 30 -1q52 0 89 42q46 52 46 179q0 122 -60 179q-20 19 -45 23q-9 1 -59 1v40h34q-1 39 0 143h43q2 -126 1 -145q65 -16 99 -89q29 -62 30 -148z" />
    <glyph glyph-name="a" unicode="a" horiz-adv-x="0" 
d="M-109 503l-44 -1l-1 165h45v-164z" />
    <glyph glyph-name="b" unicode="b" horiz-adv-x="513" 
d="M498 273q2 -42 -11 -87q-15 -54 -45 -84q-44 -44 -95 -54q27 -6 45 -29q26 -34 20 -74q-8 -47 -61 -73.5t-138 -22.5q-75 3 -110 34q-24 21 -31 49q-9 33 8 60h38q-11 -40 0 -60q17 -30 65 -37q44 -6 87 0q93 15 94 62q1 36 -25 51.5t-84 15.5h-71v43q128 0 180 32
q85 52 88 154q2 73 -25 125q-29 56 -84 75q-35 12 -89 12q-98 0 -146 -47q-54 -52 -54 -145q0 -49 21 -88q27 -51 103 -51q61 0 78 38q7 17 8 40v38q1 24 0 80l43 1v-72q1 -61 -6 -90q-5 -21 -9 -27q-7 -16 -28 -30q-32 -23 -90 -23q-40 0 -66 12q-70 32 -90 107
q-9 33 -9 72q0 78 36 132q56 86 182 93q22 1 39 1q134 0 197 -90q30 -43 35 -143z" />
    <glyph glyph-name="c" unicode="c" horiz-adv-x="518" 
d="M524 605q-7 -32 -37 -73q-14 -19 -52 -49q13 -8 24 -32q17 -37 4 -61h-37q9 32 -8 52.5t-65 21.5q-25 0 -48 -20.5t-24 -50.5h113q44 -4 65 -31q32 -41 32 -112q0 -30 -6 -65q-17 -102 -102 -154q-31 -19 -85 -28q-59 -9 -116 3q-46 5 -84 32q-85 59 -85 183
q0 112 66 157q12 8 59 15h82q3 47 -33 65q-32 16 -69 -1q-44 -20 -38 -65h-42q-7 49 31 84q31 29 65 30q108 3 119 -71q17 63 89 70q32 3 61 -7q13 12 38 40q37 43 44 67h39zM452 227q3 131 -78 131h-208q-91 0 -109 -85q-5 -21 -5 -45q0 -60 26 -113q34 -71 170 -74
q87 -2 147 51q55 49 57 135z" />
    <glyph glyph-name="d" unicode="d" horiz-adv-x="238" 
d="M218 268q0 -168 -80 -234q-40 -33 -107 -33q-13 0 -29 1v41q45 -1 60 2q38 7 66 40q45 52 45 178q0 119 -58 175q-21 21 -52 26q-18 3 -60 1v42q61 0 94 -9q60 -17 93 -86q28 -61 28 -144z" />
    <glyph glyph-name="e" unicode="e" horiz-adv-x="228" 
d="M213 148q4 -94 -35 -132q-20 -20 -66 -18q-49 2 -75 40q-11 16 -17.5 46.5t-4.5 50.5q-2 78 40 172q32 73 73 134h-95v39h145v-38q-14 -22 -60 -100q-19 -34 -40 -97.5t-20 -110.5t16 -70t47 -23q20 0 32 10q21 18 21 95q22 -1 39 2z" />
    <glyph glyph-name="f" unicode="f" horiz-adv-x="398" 
d="M385 224q2 -78 -26 -134.5t-87 -81.5q-28 -12 -64 -12q-33 0 -65 10q-38 12 -75 53q-40 45 -53 134q-5 38 0 104q5 57 24 96q44 88 124 109q23 6 51 6q43 0 79 -12q82 -27 92 -122h-50q2 15 -10 38q-18 33 -55 46q-18 6 -50 6q-34 0 -55 -9q-86 -38 -102 -181
q-3 -26 4 -72.5t15 -68.5q35 -92 130 -90q35 1 66.5 23.5t44.5 56.5q15 40 15 87q0 50 -14 80q-9 19 -26 28q-19 16 -93 14v44q63 0 72 -1q32 -4 54 -22q52 -44 54 -129z" />
    <glyph glyph-name="g" unicode="g" horiz-adv-x="504" 
d="M484 358q2 -24 2 -47q0 -162 -88 -253q-60 -62 -153 -61q-100 1 -162 59q-66 61 -66 182q0 76 30 129q33 57 88 58q31 2 118 2v-45q-81 1 -87 1q-47 -5 -74 -38t-27 -97q0 -45 13 -94q40 -110 160 -110q54 0 100 29q38 24 60 61q42 70 42 171q0 28 -4 56q-13 96 -45 147
q-49 79 -153 80q-73 1 -121.5 -40t-50.5 -96h-47q13 115 119 158q48 19 110 19q112 0 174 -82q52 -70 62 -189z" />
    <glyph glyph-name="h" unicode="h" horiz-adv-x="518" 
d="M503 253q8 -99 -19 -163q-24 -56 -74 -79q-26 -12 -54 -12q-32 0 -51 12q-31 19 -46 50q-2 -9 -31 -39q-29 -23 -73 -23q-26 0 -50 9q-58 22 -80 94q-24 79 -13 178q21 191 158 221q35 8 90 -1v-37q-73 0 -91 -4q-34 -8 -67 -49q-43 -54 -46 -166q-3 -87 21 -145
q12 -28 36 -42.5t45 -13.5q35 2 60 32q18 21 18 95v73q30 -1 51 0v-71q1 -32 8 -84q15 -46 67 -46q11 0 20 3q42 16 61 63t19 109q0 22 -3 38q-13 64 -32 81t-83 17h-89q-5 86 33 122q33 31 90 31q60 0 92 -48q21 -31 15 -75h-39q4 38 -16 61t-62 23q-67 0 -66 -75
q34 0 69 1q52 -1 76 -18q49 -34 56 -122z" />
    <glyph glyph-name="i" unicode="i" horiz-adv-x="538" 
d="M518 265q13 -78 -6 -143q-37 -124 -144 -124q-50 0 -76 29q-20 22 -24 40q-4 -18 -28 -39q-33 -30 -85 -30q-122 0 -143 142q-10 67 3.5 127t41.5 89h-47v37h34q1 18 1 37q5 26 27 47q30 29 88 29q34 0 58 -8q48 -15 54 -59q9 37 61 59q21 9 56 9t59 -11q47 -22 47 -78
q0 -10 -2 -20q-5 -22 -20 -34q34 -36 45 -99zM448 435q-14 28 -64 30q-35 1 -60.5 -19t-26.5 -53h96q22 0 31 -2t21 -8q16 27 3 52zM242 393q0 41 -31 62q-16 11 -55 11q-26 0 -41 -9q-32 -18 -28 -64h155zM483 218q-8 96 -58 130q-13 9 -73 8h-155q-80 2 -87 -4
q-51 -38 -57 -127q-5 -76 15 -122q27 -61 84 -61q48 0 73 33q19 26 20 63v117h50v-117q2 -96 76 -96q59 0 90 62q27 52 22 114z" />
    <glyph glyph-name="j" unicode="j" horiz-adv-x="532" 
d="M508 352q7 -139 -36 -224q-37 -73 -127 -114q-31 -14 -98 -14q-53 0 -80 8q-72 22 -110 77q-36 52 -35 124q1 78 54 115q15 10 53 20h149q0 41 -30 64q-26 20 -66 20q-33 0 -59 -15q-32 -24 -30 -75h-45q-2 30 5 52t25.5 41.5t34.5 25.5q32 12 68 12q71 0 105 -37
q38 -41 38 -104q0 -12 -2 -24h-144q-58 0 -83 -20q-37 -29 -32 -96q7 -88 89 -130q33 -17 106 -17q63 0 112 32q45 29 67 77q31 68 31 170q0 152 -71 218q-59 55 -156 55q-49 0 -87 -15q-31 -12 -55 -42q-20 -26 -22 -46q-18 -1 -39 0q4 77 100 122q39 18 103 18q42 0 79 -8
q59 -13 89 -40q91 -81 99 -230z" />
    <glyph glyph-name="k" unicode="k" horiz-adv-x="607" 
d="M575 143q-28 -107 -130 -135q-28 -8 -88 -6q0 14 1 39q93 0 132 38q46 45 50 130q3 51 -6 102q-10 61 -32 88q-49 61 -126 66q-22 1 -52.5 -8.5t-45.5 -22.5q-23 -21 -43 -49q40 2 68 -7q45 -15 65 -51q25 -46 25 -125q0 -81 -37 -130.5t-92 -63.5q-31 -8 -66 -8
q-66 0 -100 22q-25 16 -34 26q-20 21 -34 60q-11 31 -11 139q0 21 2 56h37q0 -27 32 -27q37 0 52 22q33 50 53 98q0 42 -20 59q-10 10 -35 10t-35 -10q-27 -27 -24 -90h-43q-4 60 19 98q28 43 87 43q38 0 56 -13q26 -19 28 -50q12 12 51 42q33 20 91 20q54 0 99 -17
q49 -19 86 -82q31 -54 31 -161q0 -58 -11 -102zM348 213q-1 78 -33 110q-29 29 -95 25q-10 -21 -21 -38q-27 -41 -51 -57q-18 -12 -50 -12q-23 0 -36 7q-1 -118 19 -149t44 -43q28 -14 78 -14q37 0 71 18q41 21 59 62q16 36 15 91z" />
    <glyph glyph-name="l" unicode="l" horiz-adv-x="600" 
d="M588 272q3 -56 -3 -94q-10 -57 -27 -89q-20 -39 -63 -67q-35 -23 -88 -22v40q54 0 81 25q61 56 61 163q0 23 -3 50q-8 79 -53 136q-40 51 -118 51q-13 0 -27 -1q-85 -8 -110 -47q-1 -15 -1 -24q85 3 131 -36q43 -37 57 -119q12 -71 -2.5 -132.5t-64.5 -91.5
q-24 -15 -61 -15q-31 0 -48.5 12.5t-20.5 14.5q-9 9 -14 25q-17 -53 -86 -52q-63 1 -90 57q-13 27 -13 70q0 46 16 72h-29v43q48 44 180 164q1 13 1 32q-4 29 -43 29q-22 0 -35 -11q-27 -22 -23 -107h-41q-3 76 11 107q24 52 84 52q73 0 89 -51q50 51 143 51q90 0 144 -55
q36 -37 50 -89t16 -91zM382 242q-11 43 -23 63q-25 40 -77 50q-30 2 -89 1l-134 -121h29q2 -7 2 -16t-2 -17q-7 -11 -16 -34q-6 -34 -1 -65q10 -59 64 -62q17 -1 34 14t19 41t2 117h41q0 -87 4 -108q10 -49 41 -60q12 -4 25 -4q38 0 64 37q24 34 24 102q0 35 -7 62z" />
    <glyph glyph-name="m" unicode="m" horiz-adv-x="504" 
d="M485 185q-17 -102 -102 -154q-31 -19 -85 -28q-59 -9 -116 3q-46 5 -84 32q-85 59 -85 183q0 112 66 157q12 8 59 15h82q3 47 -33 65q-32 16 -67.5 0t-39.5 -66h-42q-7 49 31 84q31 29 65 30q108 3 119 -71q16 62 89 70q88 10 117 -54q16 -35 4 -60q-5 -1 -37 -1
q9 32 -8 52.5t-65 21.5q-25 0 -48 -20.5t-24 -50.5h113q44 -4 65 -31q32 -41 32 -112q0 -30 -6 -65zM448 225q3 131 -75 131h-119q-39 0 -89 -1q-90 -1 -107 -82q-4 -20 -4 -45q0 -70 25 -113q42 -71 169 -74q93 -2 148 50q50 47 52 134z" />
    <glyph glyph-name="n" unicode="n" horiz-adv-x="523" 
d="M502 338q6 -95 -13 -174q-25 -104 -86 -143q-33 -21 -85 -21q-95 0 -125 70q-20 48 -17 129q2 37 17 64q19 35 54 35q0 43 -17 72q-21 34 -61 34q-57 0 -84 -56q-17 -35 -24 -105q-4 -41 1 -87q7 -59 26 -81q34 -39 94 -33q-2 -12 -1 -39q-11 -2 -23 -2q-47 0 -84 27
q-42 31 -53 87q-13 67 -5 138q9 83 32 120q44 70 129 70q46 0 76 -30q34 -34 36 -145q-13 -1 -25 -3q-15 -2 -24 -9q-25 -22 -25 -82q0 -45 18 -85q23 -48 85 -48q28 0 56 15t42 39q35 60 42 137q4 42 1 98q-6 135 -70.5 202t-152.5 63q-63 -3 -115 -40q-26 -18 -46.5 -52
t-24.5 -58h-37q3 43 30 83q70 104 201 104q72 0 121 -29q71 -42 112 -144q21 -52 25 -121z" />
    <glyph glyph-name="o" unicode="o" horiz-adv-x="428" 
d="M456 -21q0 -71 -44 -114q-40 -39 -115 -39q-31 0 -59 9q-55 18 -77 57q-16 28 -16 62q0 27 13 47q-17 3 -66 25q-63 36 -77 124q-4 26 -4 50q0 74 36 126q31 44 77 57q36 10 69 10h145q0 42 -30 55q-20 9 -32 12q-18 4 -52 5q-84 2 -108.5 -22.5t-23.5 -49.5h-49
q0 40 25 68q41 46 152 46q105 0 143 -48q19 -24 24 -47q4 -17 4 -60h-101q-95 -1 -96 -2q-58 -5 -89 -30q-40 -32 -43 -102q-3 -52 14 -95q20 -52 63 -68t119 -13q92 4 131 32v-45q-45 -30 -185 -30q-15 -27 -6 -71q6 -28 37 -44q27 -14 64 -13q70 2 95 41q18 28 18 54
q0 7 -2 13q23 -1 46 0z" />
    <glyph glyph-name="p" unicode="p" horiz-adv-x="532" 
d="M515 352q7 -138 -37 -224q-38 -74 -126 -114q-31 -14 -99 -14q-53 0 -80 8q-72 22 -110 77q-36 52 -35 124q1 62 34 95q-20 -1 -44 0l-1 40h38q-4 26 3 46q16 49 62 67q29 11 64 11q72 0 108 -36q41 -41 41 -107q0 -11 -1 -21h-148q-67 0 -92 -29q-26 -32 -22 -87
q7 -88 88 -130q33 -17 107 -17q62 0 112 32q45 29 66 77q32 71 32 170q0 152 -72 218q-59 55 -155 55q-49 0 -87 -15q-31 -12 -55 -42q-20 -26 -23 -46q-17 -1 -39 0q6 78 100 122q39 18 104 18q41 0 79 -8q59 -13 89 -40q91 -82 99 -230zM284 345q1 36 -31 63
q-22 18 -60 18q-35 0 -64 -13q-33 -26 -27 -68h182z" />
    <glyph glyph-name="q" unicode="q" horiz-adv-x="0" 
d="M-57 -152h-408v43l366 1v176l42 46v-266z" />
    <glyph glyph-name="r" unicode="r" horiz-adv-x="495" 
d="M482 255q0 -133 -90 -207q-60 -49 -144 -49q-91 0 -157 60q-73 67 -78 174q-5 97 40 169.5t122 95.5q95 39 133 72q35 29 34 62h56q-6 -50 -45 -77q-29 -17 -79 -49q40 1 86 -18q34 -14 68 -53q54 -62 54 -180zM440 236q4 229 -182 232q-89 1 -148 -58q-55 -56 -52 -177
q2 -76 58 -133.5t130 -57.5q87 0 143 63q50 56 51 131z" />
    <glyph glyph-name="s" unicode="s" horiz-adv-x="0" 
d="M-56 498h-45q4 41 -13 68q-27 42 -90 47q-33 0 -78 1q-66 1 -95 -12q-23 -10 -34.5 -37.5t-11.5 -67.5h-45q0 53 12 81q16 38 51 60q43 27 145 24q76 -2 117 -14q49 -14 70 -56q17 -34 17 -94z" />
    <glyph glyph-name="t" unicode="t" horiz-adv-x="508" 
d="M487 248q-7 -151 -121 -219q-50 -29 -128 -29q-48 0 -90 12q-62 18 -98 70q-33 49 -35 111q-2 92 34 126h-33v39h26q-2 64 42 99q23 18 75 18q49 0 67 -23q-10 41 -1 56q6 25 28 57q16 26 13 36l-28 17l20 25q133 -52 197 -194q37 -83 32 -201zM388 428q13 27 0 55
q-23 50 -80 86q-44 -35 -44 -84q0 -44 30 -66q22 -16 43 -16q39 0 51 25zM225 358q3 29 -14 51q-21 27 -59 27q-26 0 -44 -17q-23 -21 -23 -61h140zM443 295q-1 68 -19 109q-28 -31 -56 -40q-13 -4 -31 -4q-46 0 -69 24v-64l-146 -1q-28 0 -44 -33.5t-16 -79.5q0 -60 26 -97
q22 -31 63 -49t87 -18q107 0 161 77q45 67 44 176z" />
    <glyph glyph-name="u" unicode="u" horiz-adv-x="518" 
d="M498 282q-6 -100 -50 -174q-30 -49 -84.5 -78.5t-113.5 -30.5q-130 -2 -192 101q-40 66 -40 171q0 51 10 88q8 32 34 69q28 41 80 41q30 0 51 -17q17 -13 17 -44q0 -4 -8 -55q0 -3 -8 -34q-6 -26 -5 -34q4 -64 64 -63q72 1 72 104q0 11 -1 22q-9 87 -92 84v36q28 0 52 -5
q39 -8 63 -50.5t21 -93.5q-3 -66 -32 -98q-37 -41 -89 -41q-43 0 -73 28t-31 71q0 14 7 45q11 47 12 52q9 46 -13 51q-6 1 -11 1q-51 0 -70 -104q-5 -27 -5 -56q0 -66 20 -115q44 -108 163 -114q58 -3 114 37t78 109q18 56 18 135q0 71 -15 125q-41 147 -191 149
q-62 1 -111 -28q-56 -34 -67 -93h-40q3 32 31 74q31 46 93 73q21 9 71 12q45 3 71 0q124 -17 174 -141q33 -83 26 -209z" />
    <glyph glyph-name="v" unicode="v" horiz-adv-x="523" 
d="M506 265q0 -94 -15 -142q-25 -80 -86 -112q-23 -12 -60 -12q-41 0 -63 16q-28 20 -37 48q-13 -37 -53 -54q-24 -10 -50 -10q-46 0 -77 27q-36 31 -50 100q-9 47 3 122q9 55 36 76h-38v37h29q0 62 13 82q19 30 64 40q40 9 73 -1q29 -9 50 -37q14 -18 18 -51v-70h-140
q-44 -11 -60.5 -63.5t-9.5 -105.5q12 -82 47 -104q15 -9 38 -9q37 0 61 26q20 22 22 70q1 21 1 96h44q0 -42 1 -84q3 -58 21 -82q20 -27 65 -27q22 0 38 9q54 30 70 133q8 54 4 119q-6 93 -26 147q-30 80 -87 119q-43 29 -116 29q-53 0 -94 -17q-71 -30 -89 -87h-37
q10 31 22 48q26 37 65 59q56 32 136 32q76 0 125 -28q71 -40 105 -121q37 -88 37 -218zM222 362q0 43 -9 60q-15 28 -58 28q-27 0 -45 -12q-29 -20 -26 -76h138z" />
    <glyph glyph-name="w" unicode="w" horiz-adv-x="522" 
d="M500 441q-19 1 -36 -1q-26 -6 -32 -8q-16 -7 -16 -21q0 -8 4 -17q6 -15 28.5 -31t30.5 -26q16 -22 16 -59q0 -39 -40 -57q-31 -15 -74 -13v-167h67v-42h-67v-137h-48v137q-23 -1 -133 2q-54 1 -100 25q-65 34 -82 106q-8 34 -8 69q0 59 22 107q24 52 75 74q22 6 68 11
h116q1 29 -23 50q-17 14 -36 18q-30 3 -35 3q-45 0 -78 -27q-27 -22 -22 -54q-9 0 -20 1h-24q-2 5 -2 11q0 19 12 42.5t27 34.5q47 34 115 34q42 0 66 -11t51 -46q15 -24 14 -54q14 66 91 82q27 6 73 4v-40zM452 285q0 32 -32 52q-36 21 -41 51v-138q73 0 73 35zM333 42v311
h-97q-71 -1 -108 -14q-40 -13 -59 -66q-10 -28 -10 -65q0 -91 47 -130q34 -29 95 -35q25 -2 132 -1z" />
    <glyph glyph-name="x" unicode="x" horiz-adv-x="332" 
d="M318 254q0 -80 -43.5 -135.5t-107.5 -55.5q-63 0 -108.5 56t-45.5 135t45.5 135t108.5 56t107 -56t44 -135zM275 254q0 60 -31.5 104.5t-76.5 44.5q-46 0 -78 -44.5t-32 -104.5q0 -59 32 -104t77 -45t77 45t32 104z" />
    <glyph glyph-name="y" unicode="y" horiz-adv-x="531" 
d="M512 310q9 -77 -9 -158q-16 -72 -59 -110q-48 -42 -110 -42q-13 0 -26 2v40q37 -6 77 9q37 14 59 57.5t26 92.5q7 98 -8 157q-28 107 -118 107q-54 0 -92 -67q-10 -18 -16 -42.5t-11 -49.5q68 0 88 -18q33 -29 36 -100q3 -56 -16 -100q-21 -49 -68 -73q-37 -19 -82 -15
q-66 6 -99 35q-40 36 -56 87q-18 59 -9 126q10 78 40 110q19 17 22 19q18 13 43 16h75q7 72 -53 72q-36 0 -49 -31q-7 -19 -7 -45l-40 -1q-2 44 17 75q24 42 79 43q83 1 89 -74q10 32 42 54t76 21q70 -2 112 -57q37 -48 47 -140zM307 163q5 62 -19 88q-21 23 -70 20l-7 -49
h-33q0 23 6 70q5 22 11 63h-72q-35 -14 -51 -71q-13 -46 -10 -96q6 -91 56 -125q32 -22 70 -22q50 0 82 31t37 91z" />
    <glyph glyph-name="z" unicode="z" horiz-adv-x="0" 
d="M-23 8q1 -25 -10 -54q-22 -56 -94 -92q-54 -27 -144 -27q-60 0 -109 16q-89 29 -108 91q-9 28 -5 56h40q-4 -42 15 -63q25 -32 78 -49q44 -13 91 -12q120 2 173 58q34 35 34 76h39z" />
    <glyph glyph-name="braceleft" unicode="{" horiz-adv-x="872" 
d="M900 -21q0 -69 -38.5 -108.5t-122.5 -39.5q-27 0 -51 6q-58 15 -80 55q-15 28 -15 63q0 29 12 48q-22 5 -29 7q-14 5 -36 18q-64 37 -78 129q-4 26 -4 49q0 73 36 122q31 42 77 55q36 10 69 10h152q-2 44 -38 60q-24 10 -83 12q-84 2 -108.5 -22.5t-24.5 -49.5h-40
q-7 52 -47 66q-21 7 -42 7q-37 0 -62 -21t-36 -54q-3 -8 -12 -52q25 2 69 -1q27 -3 48 -24q32 -31 34 -109q2 -71 -27 -122q-22 -39 -65 -62t-100 -21q-56 2 -103 41q-60 50 -69 142q-10 0 -33 1q-32 58 -32 132q0 22 4 41q8 45 41 84q29 34 63 47q44 17 108 17h49l1 -38
q-36 1 -62 -7q-41 -13 -70 -67q-19 -35 -26 -91q-7 -50 -1 -104q8 -77 48 -118q37 -38 96 -38q63 0 100 42t35 127q-2 59 -39 84q-11 7 -70 9v-76h-43v85q3 33 13 85q28 75 78 95q35 15 96 9q38 -4 73 -41q41 46 152 46q104 0 143 -48q19 -24 24 -46q4 -16 4 -60h-100
q-48 1 -140 -6q-90 -17 -96 -131q-3 -50 21 -98q26 -54 70 -68q39 -14 111 -8q104 8 132 28v-41q-46 -30 -185 -30q-22 -30 -13 -67q7 -29 41 -46q31 -16 67 -15q70 2 95 41q18 28 18 54q0 7 -2 13h43zM145 448q-36 -7 -60.5 -50t-24.5 -91q0 -20 7 -52q8 -35 16 -47
q-2 85 5 115q17 77 57 125z" />
    <glyph glyph-name="bar" unicode="|" horiz-adv-x="523" 
d="M536 -21q0 -71 -44 -114q-40 -39 -115 -39q-31 0 -59 9q-92 29 -92 117q0 32 16 53q-28 7 -34 9q-15 5 -37 18q-61 37 -73 118q-4 26 -4 52q0 80 32 124.5t78 56.5q37 10 69 10h145q0 42 -30 55q-20 9 -32 12q-18 4 -52 5q-80 2 -108 -22q-22 -19 -18 -55q-83 0 -94 -63
q-7 -19 -9 -45q-2 -19 -1 -50q1 -49 1 -55h-43q-1 12 0 88q1 94 37 130q20 20 67 30q5 18 7 22q5 13 15 23q39 39 142 39q105 0 143 -48q19 -24 24 -47q4 -17 4 -60h-101q-95 -1 -96 -2q-58 -5 -89 -30q-40 -32 -43 -102q-3 -52 14 -95q20 -52 63 -68t119 -13q92 4 131 32
v-45q-45 -30 -185 -30q-15 -27 -6 -71q6 -28 37 -44q27 -14 64 -13q70 2 95 41q18 28 18 54q0 7 -2 13q23 -1 46 0z" />
    <glyph glyph-name="braceright" unicode="}" horiz-adv-x="342" 
d="M296 320h-248v47h248v-47zM295 178h-247v49h247v-49z" />
    <glyph glyph-name="asciitilde" unicode="~" horiz-adv-x="603" 
d="M580 263q0 -78 -22 -148q-21 -66 -83 -102q-24 -14 -58 -14q-38 0 -61.5 17.5t-32.5 33.5q-12 -11 -45 -35q-29 -16 -62 -16q-43 0 -74 26q-40 33 -53 108q-12 71 12 134q11 27 31 47q-11 -2 -29 -10q-16 -14 -28 -42t-13 -54q-2 -70 33 -136h-40q-34 81 -32 142
q2 73 55 118q14 12 44 18q1 22 1.5 45t6.5 33q19 33 58.5 47t81.5 1q35 -11 49.5 -30t18.5 -52v-86h-151q-34 -9 -52.5 -65.5t-2.5 -119.5q12 -46 40 -68q19 -14 47 -14q32 0 56.5 18t26.5 48q1 19 1 139h43q0 -142 12 -172q13 -33 60 -33q34 0 57 22q47 44 59 132
q5 37 5 77q0 88 -24 164q-31 98 -109 141q-38 21 -99 21q-63 0 -101 -23q-52 -32 -73 -82h-41q7 28 21 48q24 34 65 59q54 32 131 32q74 0 125 -28q70 -38 107 -122q39 -88 39 -219zM297 343q5 51 -9 72q-18 27 -62 27q-34 0 -50 -20q-11 -13 -13 -30v-49h134z" />
    <glyph glyph-name="nonbreakingspace" unicode="&#xa0;" horiz-adv-x="756" 
d="M732 106q2 -76 -21 -111q-28 -43 -100 -43q-59 0 -93 40q-31 37 -28 111q3 63 40 122q24 38 68 88h-94v39l90 71h-92v42h156v-42l-85 -69h85v-38q-32 -27 -66 -75q-39 -55 -53 -106q-5 -17 -5 -36q0 -36 15 -71q10 -24 54 -32q35 -6 66 19q21 18 22 91h41zM529 -21
q0 -71 -44 -114q-38 -36 -111 -36q-40 0 -79 15q-44 18 -61 48q-15 26 -15 60q0 32 16 53q-29 7 -34 9q-16 5 -37 18q-60 37 -72 118q-4 27 -4 54q0 79 31.5 123t78.5 56q38 10 69 10h145q0 41 -31 55q-20 9 -31 12q-18 4 -52 5q-81 2 -109 -22q-22 -19 -17 -55
q-83 0 -94 -63q-10 -26 -11 -69q1 50 1 -81h-43q-1 12 0 88q1 93 38 130q21 21 66 30q5 18 7 22q5 13 15 23q39 39 142 39q106 0 144 -48q19 -23 24 -47q3 -16 3 -60h-101l-95 -2q-58 -5 -89 -30q-41 -32 -44 -102q-2 -47 12 -88q18 -55 60 -73t124 -15q92 4 132 32v-45
q-46 -30 -185 -30q-15 -26 -7 -71q5 -28 37 -44q28 -14 65 -13q71 2 95 41q17 28 17 54q0 7 -2 13q12 1 46 0zM0 0z" />
    <glyph glyph-name="exclamdown" unicode="&#xa1;" horiz-adv-x="495" 
d="M482 255q0 -133 -90 -207q-60 -49 -144 -49q-91 0 -157 60q-73 67 -78 174q-5 97 40 169.5t122 95.5q79 34 110 62q15 14 29 44h24q7 8 14 12h-80q-31 -1 -61 -3q-23 -1 -35 -6q-29 -11 -50 -40q-17 -22 -18 -73h-49q0 56 13 85q20 44 60 63q53 26 155 23q56 -2 67 -2
q34 -2 58 -9q50 -14 67 -45q10 -18 10 -40q0 -54 -40 -70q-17 -10 -56 -9q-32 6 -49 20q-14 7 -19 32q-24 -17 -51 -36q40 1 86 -18q34 -14 68 -53q54 -62 54 -180zM442 560q0 36 -37 36q-16 0 -27 -12t-10 -24q3 -30 37 -30q37 0 37 30zM440 236q4 229 -182 232
q-89 1 -148 -58q-55 -56 -52 -177q2 -76 58 -133.5t130 -57.5q87 0 143 63q50 56 51 131z" />
    <glyph glyph-name="cent" unicode="&#xa2;" horiz-adv-x="523" 
d="M480 505h-43q2 41 -12 63q-22 35 -80 40h-68q-57 1 -84 -10q-18 -5 -30 -30q-10 -20 -10 -61h-43q-3 43 13.5 77t45.5 51q42 24 128 20q27 -1 55 -2.5t50 -7.5q44 -12 63 -53q15 -32 15 -87zM536 -21q0 -71 -44 -114q-39 -38 -117 -38q-32 0 -59 9q-54 18 -75 56
q-15 27 -15 60q0 32 16 53q-28 7 -34 9q-15 5 -37 18q-61 37 -73 118q-4 26 -4 52q0 80 32 124.5t78 56.5q37 10 69 10h145q0 42 -30 55q-20 9 -32 12q-18 4 -52 5q-80 2 -108 -22q-22 -19 -18 -55q-83 0 -94 -63q-7 -19 -9 -45q-2 -19 -1 -50q1 -49 1 -55h-43q-1 12 0 88
q1 94 37 130q20 20 67 30q5 18 7 22q5 13 15 23q39 39 142 39q105 0 143 -48q19 -24 24 -47q4 -17 4 -60h-101q-95 -1 -96 -2q-58 -5 -89 -30q-40 -32 -43 -102q-3 -52 14 -95q20 -52 63 -68t119 -13q92 4 131 32v-45q-45 -30 -185 -30q-15 -27 -6 -71q6 -28 37 -44
q27 -14 64 -13q70 2 95 41q18 28 18 54q0 7 -2 13q12 -1 46 0z" />
    <glyph glyph-name="sterling" unicode="&#xa3;" horiz-adv-x="523" 
d="M485 602q9 -17 9 -35q0 -41 -36 -62q-15 -9 -50 -8q-28 4 -44 16q-9 4 -15 22t-4 33q4 28 25 44q-29 1 -70 1q-64 -2 -90 -10.5t-43.5 -34.5t-18.5 -68h-40q-4 42 13.5 77.5t53.5 54.5q44 24 137 21q30 -1 60.5 -2t51.5 -7q44 -12 61 -42zM536 -21q0 -71 -44 -114
q-38 -37 -111 -37q-41 0 -79 16q-44 18 -61 48q-15 27 -15 60q0 32 16 53q-28 7 -34 9q-15 5 -37 18q-61 37 -73 118q-4 26 -4 52q0 80 32 124.5t78 56.5q37 10 69 10h145q0 42 -30 55q-20 9 -32 12q-18 4 -52 5q-80 2 -108 -22q-22 -19 -18 -55q-83 0 -94 -63
q-7 -19 -9 -45q-2 -19 -1 -50q1 -49 1 -55h-43q-1 12 0 88q1 94 37 130q20 20 67 30q5 18 7 22q5 13 15 23q39 39 142 39q105 0 143 -48q19 -24 24 -47q4 -17 4 -60h-101q-95 -1 -96 -2q-58 -5 -89 -30q-40 -32 -43 -102q-3 -52 14 -95q20 -52 63 -68t119 -13q92 4 131 32
v-45q-45 -30 -185 -30q-15 -27 -6 -71q6 -28 37 -44q27 -14 64 -13q70 2 95 41q18 28 18 54q0 7 -2 13q23 -1 46 0zM452 560q0 32 -34 32q-14 0 -23.5 -11.5t-8.5 -22.5q2 -26 32 -26q34 0 34 28z" />
    <glyph glyph-name="currency" unicode="&#xa4;" horiz-adv-x="431" 
d="M423 -93q0 -47 -35 -72q-31 -22 -90 -18q-42 3 -67 11v45q33 -15 87 -11q60 4 60 43q0 46 -55 46h-30v26q5 5 19 24q-14 1 -41 -2.5t-43 -3.5q-43 0 -68.5 5.5t-32.5 8.5q-13 5 -35 17q-63 36 -77 124q-4 26 -4 50q0 74 36 126q31 44 77 57q36 10 69 10h145q0 42 -30 55
q-20 9 -32 12q-18 4 -52 5q-84 2 -108.5 -22.5t-23.5 -49.5h-49q0 40 25 68q41 46 152 46q105 0 143 -48q19 -24 24 -47q4 -17 4 -60h-101q-95 -1 -96 -2q-58 -5 -89 -30q-40 -32 -43 -102q-3 -52 14 -95q20 -52 63 -68t119 -13q92 4 131 32v-45q-3 -3 -39 -37q37 0 54 -17
q19 -20 19 -68z" />
    <glyph glyph-name="yen" unicode="&#xa5;" horiz-adv-x="416" 
d="M400 -119q-28 -1 -82 -1q-10 0 -44.5 12t-60.5 12q-28 0 -69 -12t-53 -12q-29 0 -34 1q-15 3 -26 14v45q5 -7 32 -18q17 -2 41 5q77 21 109 21q30 0 57 -9q21 -7 42 -15q20 -1 41 0v94q-40 -23 -125 -23q-44 0 -69 5.5t-32 8.5q-13 5 -35 17q-63 36 -77 124q-4 26 -4 50
q0 74 36 126q31 44 77 57q36 10 69 10h145q0 42 -30 55q-20 9 -32 12q-18 4 -52 5q-84 2 -108.5 -22.5t-23.5 -49.5h-49q0 40 25 68q41 46 152 46q105 0 143 -48q19 -24 24 -47q4 -17 4 -60h-101q-95 -1 -96 -2q-58 -5 -89 -30q-40 -32 -43 -102q-3 -60 17 -103
q24 -53 77 -65q42 -10 102 -8q75 3 98 34q14 0 44 1v-196z" />
    <glyph glyph-name="brokenbar" unicode="&#xa6;" 
 />
    <glyph glyph-name="section" unicode="&#xa7;" horiz-adv-x="250" 
d="M203 510h-22l-43 72v68h62v-68l-22 1zM116 510h-21l-44 72v68h62v-68l-23 1z" />
    <glyph glyph-name="dieresis" unicode="&#xa8;" horiz-adv-x="513" 
d="M487 225q-12 -45 -32 -69q-33 -38 -72 -48q-24 -6 -49 -6q-92 0 -126 62q-18 33 -18 83q0 31 8 57h-43v45h224v-46l-134 1q-9 -25 -9 -53q0 -48 22 -74q29 -34 79 -34q42 0 68 22q50 42 47 132q-3 80 -55 126q-48 42 -125 42q-150 0 -196 -157q-9 -30 -9 -64
q0 -70 33 -133q23 -43 79 -66q46 -18 103 -18q46 0 100 23q25 11 62 42l34 -16v-196l-423 1v39l380 1v110q-62 -38 -126 -46q-20 -2 -40 -2q-84 0 -139 35q-74 48 -98 128q-18 61 -10 126q9 73 35.5 116t54.5 65q22 19 66 39q32 15 97 15q165 0 207 -140q12 -41 12 -82
q0 -32 -7 -60z" />
    <glyph glyph-name="copyright" unicode="&#xa9;" horiz-adv-x="538" 
d="M397 598q-5 -71 -32 -90h-43q21 20 31 56q8 30 5 49q-12 88 -88 89q-46 0 -67 -38q-18 -32 -13 -78q4 -40 37 -44q26 -4 36 16q6 11 7 23q2 9 1 22q-1 20 -1 23l42 1q0 -44 -1 -59q-3 -42 -43 -58q-39 -15 -73 1q-47 22 -47 94q0 38 13 66q33 70 111 70q66 0 101 -48
q28 -38 24 -95zM513 253q8 -99 -19 -163q-24 -56 -74 -79q-26 -12 -54 -12q-32 0 -51 12q-31 19 -46 50q-2 -9 -31 -39q-29 -23 -73 -23q-26 0 -50 9q-58 22 -80 94q-24 79 -13 178q21 191 158 221q35 8 90 -1v-37q-73 0 -91 -4q-34 -8 -67 -49q-43 -54 -46 -166
q-3 -87 21 -145q12 -28 36 -42.5t45 -13.5q35 2 60 32q18 21 18 95v73q30 -1 51 0v-71q1 -32 8 -84q15 -46 67 -46q11 0 20 3q42 16 61 63t19 109q0 22 -3 38q-13 64 -32 81t-83 17h-89q-5 86 33 122q33 31 90 31q60 0 92 -48q21 -31 15 -75h-39q4 38 -16 61t-62 23
q-67 0 -66 -75q34 0 69 1q52 -1 76 -18q49 -34 56 -122z" />
    <glyph glyph-name="ordfeminine" unicode="&#xaa;" horiz-adv-x="503" 
d="M483 -119q-28 -1 -81 -1q-10 0 -44.5 12t-60.5 12q-29 0 -70 -12t-53 -12q-29 0 -34 1q-15 3 -26 14v45q5 -7 33 -18q16 -2 41 5q77 21 109 21q30 0 57 -9q20 -7 41 -15q20 -1 41 0v94q-40 -23 -124 -23q-44 0 -69.5 5.5t-32.5 8.5q-13 4 -35 17q-64 36 -77 124
q-4 25 -4 49q0 75 36 126q32 45 78 58q37 10 69 10h145q0 41 -31 55q-20 9 -31 12q-18 4 -52 5q-85 2 -109.5 -22.5t-23.5 -49.5q-85 0 -99 -66q-8 -25 -9 -70q1 61 1 -82h-43q-1 12 0 88q1 93 40 129q23 22 68 31q2 18 19 38q41 46 151 46q106 0 144 -48q19 -23 24 -47
q3 -16 3 -60h-101l-95 -2q-58 -5 -89 -30q-41 -32 -44 -102q-3 -54 15 -97q21 -53 67 -68q42 -13 114 -11q75 3 98 34q14 0 44 1v-196z" />
    <glyph glyph-name="guillemotleft" unicode="&#xab;" horiz-adv-x="851" 
d="M862 -93q0 -47 -32.5 -70.5t-92.5 -19.5q-42 3 -67 11v45q46 -20 88 -15q59 7 60 47q1 46 -56 46h-30v26q5 5 20 24q-14 1 -40 -3q-29 -3 -44 -3q-45 0 -69.5 5.5t-32.5 8.5q-12 5 -34 17q-65 37 -78 124q-4 25 -4 49q0 75 36 127q31 45 77 57q37 10 70 10h152
q-2 40 -34 57q-24 13 -88 15q-74 2 -98 -14q-28 -18 -24 -56q-27 -1 -43 -1q-7 35 -37 55q-25 16 -60 16q-40 0 -63.5 -22t-33.5 -54q-1 -4 -9 -50q25 1 70 -2q27 -5 47 -25q32 -32 34 -109q2 -66 -28 -121q-23 -43 -64 -64t-101 -20q-56 1 -103 41q-59 50 -68 143h-34
q-30 56 -30 131q0 23 4 42q8 45 40 83q29 35 63 48q44 17 108 17h49l1 -38q-38 0 -61 -7q-41 -12 -70 -67q-20 -37 -27 -92q-6 -45 -1 -102q7 -77 48 -119q37 -38 95 -38q64 0 100 42q39 46 36 126q-3 62 -38 85q-14 9 -73 9v-77h-40v86q1 32 13 91q21 54 51 77
q36 27 104 27q30 0 58 -17q25 -15 30 -32q24 50 151 50q106 0 144 -48q19 -23 24 -47q3 -16 3 -60h-101l-96 -2q-59 -5 -91 -30q-41 -32 -44 -102q-2 -46 13 -88q20 -55 62.5 -73t123.5 -15q92 4 131 32v-45q-20 -20 -39 -37q37 0 54 -17q19 -20 19 -68zM145 448
q-36 -7 -60.5 -50t-24.5 -91q0 -20 7 -52q8 -35 16 -47q-2 85 5 115q17 77 57 125z" />
    <glyph glyph-name="logicalnot" unicode="&#xac;" 
 />
    <glyph glyph-name="minus" unicode="&#xad;" 
 />
    <glyph glyph-name="minus" unicode="&#x2212;" 
 />
    <glyph glyph-name="registered" unicode="&#xae;" horiz-adv-x="0" 
d="M-378 458h-44l-1 222h45v-222z" />
    <glyph glyph-name="macron" unicode="&#xaf;" horiz-adv-x="497" 
d="M482 255q0 -133 -90 -207q-60 -49 -144 -49q-91 0 -157 60q-73 67 -78 174q-5 97 40 169.5t122 95.5q18 7 32 9q-23 12 -29 36q-6 26 12 50q-38 5 -59 0q-31 -7 -50 -27q-15 -16 -20 -46q-4 -13 4 -42q2 -7 17 -33h-44q-12 27 -16 53q-6 36 10 70q19 40 61 55
q39 14 115 9q44 -3 68 -24q20 -17 20 -50q48 28 46 74h56q-6 -50 -45 -77q-29 -17 -79 -49q40 1 86 -18q34 -14 68 -53q54 -62 54 -180zM258 558q0 25 -23 25q-22 0 -22 -26q0 -25 25 -25q20 0 20 26zM440 236q4 229 -182 232q-89 1 -148 -58q-55 -56 -52 -177
q2 -76 58 -133.5t130 -57.5q87 0 143 63q50 56 51 131z" />
    <glyph glyph-name="macron" unicode="&#x2c9;" horiz-adv-x="497" 
d="M482 255q0 -133 -90 -207q-60 -49 -144 -49q-91 0 -157 60q-73 67 -78 174q-5 97 40 169.5t122 95.5q18 7 32 9q-23 12 -29 36q-6 26 12 50q-38 5 -59 0q-31 -7 -50 -27q-15 -16 -20 -46q-4 -13 4 -42q2 -7 17 -33h-44q-12 27 -16 53q-6 36 10 70q19 40 61 55
q39 14 115 9q44 -3 68 -24q20 -17 20 -50q48 28 46 74h56q-6 -50 -45 -77q-29 -17 -79 -49q40 1 86 -18q34 -14 68 -53q54 -62 54 -180zM258 558q0 25 -23 25q-22 0 -22 -26q0 -25 25 -25q20 0 20 26zM440 236q4 229 -182 232q-89 1 -148 -58q-55 -56 -52 -177
q2 -76 58 -133.5t130 -57.5q87 0 143 63q50 56 51 131z" />
    <glyph glyph-name="degree" unicode="&#xb0;" horiz-adv-x="440" 
d="M408 602q9 -16 9 -34q0 -42 -36 -63q-16 -9 -51 -8q-28 4 -44 16q-19 10 -19 44q0 6 1 11q5 30 24 44q-29 1 -70 1q-63 -2 -90 -11t-43.5 -33.5t-17.5 -68.5h-42q-3 44 15 78q25 49 82 65q39 12 108 10q30 -1 60.5 -2t51.5 -7q45 -12 62 -42zM456 -21q0 -71 -44 -114
q-40 -39 -115 -39q-31 0 -59 9q-55 18 -77 57q-16 28 -16 62q0 27 13 47q-17 3 -66 25q-63 36 -77 124q-4 26 -4 50q0 74 36 126q31 44 77 57q36 10 69 10h145q0 42 -30 55q-20 9 -32 12q-18 4 -52 5q-84 2 -108.5 -22.5t-23.5 -49.5h-49q0 40 25 68q41 46 152 46
q105 0 143 -48q19 -24 24 -47q4 -17 4 -60h-101q-95 -1 -96 -2q-58 -5 -89 -30q-40 -32 -43 -102q-3 -52 14 -95q20 -52 63 -68t119 -13q92 4 131 32v-45q-45 -30 -185 -30q-15 -27 -6 -71q6 -28 37 -44q27 -14 64 -13q70 2 95 41q18 28 18 54q0 7 -2 13q12 1 46 0zM374 560
q0 32 -33 32q-15 0 -24.5 -11t-8.5 -23q2 -26 33 -26q33 0 33 28z" />
    <glyph glyph-name="plusminus" unicode="&#xb1;" horiz-adv-x="679" 
d="M659 106q2 -75 -21 -111q-27 -43 -100 -43q-59 0 -93 40q-30 35 -27 111q2 63 40 122q28 44 67 88h-93v39l90 71h-93v42h156q1 -38 0 -42l-84 -69h85v-38q-37 -30 -68 -75q-37 -52 -51 -106q-5 -17 -5 -37q0 -35 15 -70q10 -24 53 -32q36 -7 67 19q21 17 21 91h41z
M463 -21q0 -70 -45 -114q-37 -36 -115 -36q-31 0 -59 8q-51 15 -76 58q-16 28 -16 61q0 26 12 45q-17 3 -66 25q-62 35 -76 124q-4 26 -4 50q0 74 36 126q31 44 77 57q36 10 69 10h145q0 41 -31 55q-19 9 -31 12q-18 4 -52 5q-84 2 -108.5 -22.5t-24.5 -49.5q-27 0 -49 2
q2 38 26 66q41 46 152 46q104 0 143 -48q19 -24 24 -47q4 -17 4 -60h-101q-95 -1 -96 -2q-58 -5 -89 -30q-41 -32 -44 -102q-3 -52 14 -96q21 -52 64.5 -67.5t117.5 -12.5q92 4 132 32v-45q-46 -30 -185 -30q-16 -27 -7 -71q6 -28 37 -44q28 -14 65 -13q70 2 95 41
q18 28 18 54q0 7 -2 13q11 1 46 0z" />
    <glyph glyph-name="twosuperior" unicode="&#xb2;" 
 />
    <glyph glyph-name="threesuperior" unicode="&#xb3;" 
 />
    <glyph glyph-name="acute" unicode="&#xb4;" horiz-adv-x="527" 
d="M508 329q8 -64 -4 -136q-13 -83 -47 -131q-43 -62 -115 -63q-68 -1 -91 46q-10 -21 -35 -33.5t-54 -12.5q-102 0 -130 113q-16 64 -16 123q0 30 4 60q15 117 82 153q28 15 66 15q44 0 60 -15q22 -21 12 -66q-8 -2 -15 -5q-16 -9 -23 -27q-4 -10 -4 -21q0 -35 30 -46
q17 -6 34 -6q33 0 53 22.5t20 57.5q0 20 -7 34q-9 20 -18 26q-17 12 -58 11v34q65 4 89 -19t32 -71q2 -10 2 -20q0 -57 -39 -89q-30 -25 -81 -25q-34 0 -56 11q-42 20 -42 72q0 17 6.5 32t11.5 22q10 12 27 20q1 5 1 9q0 24 -32 24q-42 0 -67 -27t-36 -69.5t-10 -119.5
q1 -54 20 -107q23 -65 77 -66q45 -1 64 30q13 23 12 60v71h40q-2 -51 0 -92q4 -67 72 -67q46 0 74 34q33 39 45 112.5t6 125.5q-3 25 -6 50.5t-12 49.5q-20 51 -58 71q-43 21 -137 19h-203v37q30 0 36 1q-19 17 -19 39q0 16 13 33q32 41 178 38q123 -2 176 -29
q59 -30 59 -97q0 -11 -2 -21l-36 -1q4 60 -44 86q-43 23 -151 23q-120 0 -138 -16q-11 -10 -11 -24q0 -26 29 -31h112q101 0 145 -15q53 -18 76 -68q14 -29 19 -47q8 -28 14 -82z" />
    <glyph glyph-name="mu" unicode="&#xb5;" horiz-adv-x="499" 
d="M503 -57h-38q2 39 -12 39q-15 1 -15 -40h19q30 0 38 -52t-12 -88q-11 -19 -35 -29.5t-50 -4.5q-10 2 -25 7q-18 8 -20 7q-6 -3 -7 -13h-39q-2 18 -2 43q1 13 12 47q14 13 37 42q11 20 11 47q0 34 -11 34q-8 0 -9 -17q0 6 0 -30h-39v27q0 28 8 40q-36 -5 -85 -5
q-41 0 -69.5 6t-31.5 7q-15 4 -36 16q-63 36 -77 124q-4 26 -4 50q0 74 36 126q31 44 77 57q36 10 69 10h145q0 42 -30 55q-20 9 -32 12q-18 4 -52 5q-84 2 -108.5 -22.5t-23.5 -49.5h-48q-3 38 24 68q41 46 152 46q105 0 143 -48q19 -24 24 -47q4 -17 4 -60h-101
q-95 -1 -96 -2q-58 -5 -89 -30q-40 -32 -43 -102q-3 -52 14 -95q20 -52 63 -68t119 -13q92 4 131 32v-42q-5 -3 -27 -14q31 -1 38 -35q1 -3 2 -33q1 -53 -19 -75q-6 -5 -20.5 -20.5t-16.5 -42.5q18 4 27 2q4 -1 14.5 -5.5t15.5 -4.5q31 1 42 17.5t11 42.5q0 10 -2 18
q-2 27 -24 30q-8 0 -28 2q0 55 1 61q4 14 15 31q10 12 37 12q17 0 28 -6q20 -12 20 -69z" />
    <glyph glyph-name="mu" unicode="&#x3bc;" horiz-adv-x="499" 
d="M503 -57h-38q2 39 -12 39q-15 1 -15 -40h19q30 0 38 -52t-12 -88q-11 -19 -35 -29.5t-50 -4.5q-10 2 -25 7q-18 8 -20 7q-6 -3 -7 -13h-39q-2 18 -2 43q1 13 12 47q14 13 37 42q11 20 11 47q0 34 -11 34q-8 0 -9 -17q0 6 0 -30h-39v27q0 28 8 40q-36 -5 -85 -5
q-41 0 -69.5 6t-31.5 7q-15 4 -36 16q-63 36 -77 124q-4 26 -4 50q0 74 36 126q31 44 77 57q36 10 69 10h145q0 42 -30 55q-20 9 -32 12q-18 4 -52 5q-84 2 -108.5 -22.5t-23.5 -49.5h-48q-3 38 24 68q41 46 152 46q105 0 143 -48q19 -24 24 -47q4 -17 4 -60h-101
q-95 -1 -96 -2q-58 -5 -89 -30q-40 -32 -43 -102q-3 -52 14 -95q20 -52 63 -68t119 -13q92 4 131 32v-42q-5 -3 -27 -14q31 -1 38 -35q1 -3 2 -33q1 -53 -19 -75q-6 -5 -20.5 -20.5t-16.5 -42.5q18 4 27 2q4 -1 14.5 -5.5t15.5 -4.5q31 1 42 17.5t11 42.5q0 10 -2 18
q-2 27 -24 30q-8 0 -28 2q0 55 1 61q4 14 15 31q10 12 37 12q17 0 28 -6q20 -12 20 -69z" />
    <glyph glyph-name="paragraph" unicode="&#xb6;" horiz-adv-x="250" 
d="M202 582l-44 -72h-22l26 73l-23 -1v68h63v-68zM115 582l-43 -72h-23l26 73l-23 -1v68h63v-68z" />
    <glyph glyph-name="periodcentered" unicode="&#xb7;" horiz-adv-x="157" 
d="M98 365h-45v45h45v-45zM98 41l-16 -42h-14l10 42h-25v45h45v-45z" />
    <glyph glyph-name="periodcentered" unicode="&#x2219;" horiz-adv-x="157" 
d="M98 365h-45v45h45v-45zM98 41l-16 -42h-14l10 42h-25v45h45v-45z" />
    <glyph glyph-name="onesuperior" unicode="&#xb9;" 
 />
    <glyph glyph-name="ordmasculine" unicode="&#xba;" horiz-adv-x="523" 
d="M576 -57h-38q2 39 -11 39q-15 1 -15 -40h18q28 0 38 -52t-11 -88q-11 -20 -37 -30q-20 -11 -48 -4q-8 2 -25 7q-20 7 -21 7q-6 -3 -7 -13h-39q-2 18 -2 43q1 13 12 47q3 6 18 19.5t20 22.5q10 18 10 47q0 34 -10 34q-9 0 -10 -17q0 3 0 -30h-39v27t9 41q-56 -6 -85 -6
q-41 0 -71 6.5t-31 6.5q-15 4 -36 16q-64 36 -77 124q-4 25 -4 49q0 75 36 126q32 45 78 58q37 10 69 10h145q0 41 -31 55q-20 9 -31 12q-18 4 -52 5q-85 2 -109.5 -22.5t-23.5 -49.5q-77 0 -97 -69q-8 -27 -10 -151h-42q-1 22 0 89q1 95 37 131q30 30 73 33q2 19 16 35
q41 46 151 46q106 0 144 -48q19 -23 24 -47q3 -16 3 -60h-101l-95 -2q-58 -5 -89 -30q-41 -32 -44 -102q-2 -47 12 -88q18 -55 60 -73t124 -15q92 4 132 32v-42l-28 -14q31 -1 38 -35q1 -3 2 -33q1 -53 -18 -75q-6 -5 -21 -22.5t-17 -40.5q18 4 28 2q4 -1 14.5 -5.5
t15.5 -4.5q30 1 41 18q16 24 10 60q-4 27 -25 30q-7 0 -28 2q0 50 2 61q3 16 14 30t38 14q17 0 28 -7q21 -13 19 -69z" />
    <glyph glyph-name="guillemotright" unicode="&#xbb;" 
 />
    <glyph glyph-name="onequarter" unicode="&#xbc;" 
 />
    <glyph glyph-name="onehalf" unicode="&#xbd;" 
 />
    <glyph glyph-name="threequarters" unicode="&#xbe;" 
 />
    <glyph glyph-name="questiondown" unicode="&#xbf;" horiz-adv-x="495" 
d="M482 504h-45q4 41 -13 68q-27 42 -90 47q-33 0 -78 1q-66 1 -95 -12q-23 -10 -34.5 -37.5t-11.5 -67.5h-45q0 53 12 81q16 38 51 60q43 27 145 24q76 -2 117 -14q49 -14 70 -56q17 -34 17 -94zM482 255q0 -133 -90 -207q-60 -49 -144 -49q-91 0 -157 60q-73 67 -78 174
q-5 97 40 169.5t122 95.5q85 37 119 63q24 18 36 43h46q-9 -40 -37 -61q-17 -13 -37 -22.5t-28 -14.5q40 1 86 -18q34 -14 68 -53q54 -62 54 -180zM440 236q4 229 -182 232q-89 1 -148 -58q-55 -56 -52 -177q2 -76 58 -133.5t130 -57.5q87 0 143 63q50 56 51 131z" />
    <glyph glyph-name="Agrave" unicode="&#xc0;" 
 />
    <glyph glyph-name="Aacute" unicode="&#xc1;" 
 />
    <glyph glyph-name="Acircumflex" unicode="&#xc2;" horiz-adv-x="518" 
d="M540 568q-38 -37 -95 -96q4 -5 12 -17q9 -18 9 -45q0 -26 -11 -46q35 -44 35 -122q0 -28 -5 -57q-17 -102 -102 -154q-31 -19 -85 -28q-59 -9 -116 3q-46 5 -84 32q-85 59 -85 183q0 112 66 157q12 8 59 15h82q4 49 -32 67q-13 7 -37 5q-22 -1 -35 -7q-34 -15 -38 -71
q-10 1 -37 0q-5 51 30 87q30 31 64 32q106 3 118 -70q7 30 35 51q22 16 40 18q-17 7 -26 27q-7 17 -4 35q5 32 25 49q-19 1 -84 2q-58 -1 -80 -10q-29 -12 -46.5 -37t-17.5 -79h-36q-4 49 13.5 86.5t57 58.5t122.5 21q109 0 146 -17q27 -13 41 -40q18 -36 3 -72
q-5 -12 -27 -32q8 5 36 33q18 18 37 38h52zM410 557q4 43 -40 43q-17 0 -27.5 -15t-9.5 -30t13.5 -25t25.5 -10q35 0 38 37zM423 379q12 36 -6 60q-22 30 -69 28q-24 -1 -45 -22.5t-22 -51.5q-1 -69 58 -68q67 1 84 54zM452 227q2 67 -19 100q-16 -22 -42 -30q-29 -9 -52 -9
q-60 0 -87 47q-6 11 -9 23h-77q-91 0 -109 -85q-5 -22 -5 -46q0 -61 26 -110q38 -73 170 -76q87 -2 147 51q55 49 57 135z" />
    <glyph glyph-name="Atilde" unicode="&#xc3;" 
 />
    <glyph glyph-name="Adieresis" unicode="&#xc4;" horiz-adv-x="533" 
d="M509 333q7 -92 -8 -171q-12 -65 -47.5 -107.5t-84.5 -52.5q-38 -8 -86.5 8.5t-70.5 40.5q-11 -22 -11 -48q0 -10 2 -19q-16 -2 -45 0q-4 83 13 134q10 32 39 69.5t35 50.5q10 23 10 53q0 40 -17 67q-19 32 -55 35q-59 4 -87 -45q-19 -34 -26 -108q-4 -41 6 -125
q4 -33 26 -52q19 -16 42 -15q1 -3 0 -47q-103 -1 -122 121q-6 46 -2 128q3 56 16 92q23 64 75 86q28 12 64 12q52 0 88 -28q41 -33 41 -114q0 -12 -1 -25q-4 -48 -15 -67q-6 -10 -38 -49q-23 -29 -32 -59q28 -17 56 -33q40 -24 73 -21q24 2 50 21q22 17 33 38q26 47 31 116
q9 122 -19 195q-20 51 -57 71q-44 23 -137 20h-203v40q25 0 36 2q-16 17 -16 37q0 21 18 40q35 37 169 35q130 -2 186 -29q68 -33 61 -120q-39 0 -45 1q4 57 -47 84q-43 23 -152 23q-101 0 -126 -19q-14 -10 -14 -24q0 -20 24 -28h109q105 0 155.5 -20t74.5 -71
q26 -55 31 -123z" />
    <glyph glyph-name="Aring" unicode="&#xc5;" horiz-adv-x="533" 
d="M509 333q7 -92 -8 -171q-12 -65 -47.5 -107.5t-84.5 -52.5q-38 -8 -86.5 8.5t-70.5 40.5q-12 -42 -9 -63q-16 -2 -45 0q-3 79 13 130q10 32 39 69.5t35 50.5q10 23 10 53q0 40 -17 67q-19 32 -55 35q-59 4 -87 -45q-19 -34 -26 -108q-4 -41 6 -125q4 -33 26 -52
q19 -16 42 -15q1 -3 0 -47q-103 -1 -122 121q-6 46 -2 128q3 56 16 92q23 64 75 86q28 12 64 12q52 0 88 -28q41 -33 41 -114q0 -12 -1 -25q-4 -48 -15 -67q-6 -10 -38 -49q-23 -29 -32 -59q28 -17 56 -33q40 -24 73 -21q24 2 50 21q22 17 33 38q26 47 31 116q3 38 3 67
q0 81 -22 128q-19 41 -45 55q-32 16 -108 18q-54 -1 -151 0q-23 1 -61 6q-40 13 -40 61q0 40 33 67q49 40 198 37q123 -3 178 -45q52 -40 47 -110h-45q6 41 -28 71q-43 37 -156 39q-112 2 -150 -18q-26 -14 -26 -38q0 -25 44 -25h110q94 -1 141 -10q65 -12 95 -69
q25 -48 31 -120z" />
    <glyph glyph-name="AE" unicode="&#xc6;" horiz-adv-x="513" 
d="M487 225q-12 -45 -32 -69q-33 -38 -72 -48q-24 -6 -49 -6q-92 0 -126 62q-18 33 -18 83q0 31 8 57h-43v45h224v-46l-135 1q-9 -25 -9 -51q0 -49 23 -76q29 -34 79 -34q42 0 68 22q50 42 47 132q-3 80 -55 126q-48 42 -125 42q-150 0 -196 -157q-9 -30 -9 -64
q0 -70 33 -133q23 -43 79 -66q46 -18 103 -18q46 0 100 23q25 11 62 42l34 -16v-196h-85q-48 13 -89 18q-37 4 -86 0q-2 0 -40.5 -9.5t-62.5 -8.5q-26 1 -65 12v45q38 -19 68 -15q12 0 40.5 6t31.5 6q66 7 118 5q29 -6 87 -17q16 -7 40 -1v110q-62 -38 -126 -46
q-20 -2 -40 -2q-84 0 -139 35q-74 48 -98 128q-18 61 -10 126q9 73 35.5 116t54.5 65q22 19 66 39q32 15 97 15q165 0 207 -140q12 -41 12 -82q0 -32 -7 -60z" />
    <glyph glyph-name="Ccedilla" unicode="&#xc7;" horiz-adv-x="533" 
d="M509 333q7 -92 -8 -171q-27 -139 -132 -160q-39 -8 -87 8.5t-70 40.5q-12 -44 -9 -65q-16 -2 -45 0q-3 81 13 132q10 32 39 69.5t35 50.5q10 23 10 53q0 40 -17 67q-19 32 -55 35q-59 4 -87 -45q-19 -34 -26 -108q-6 -58 8 -125q15 -74 66 -71q1 1 0 -43q-97 -1 -119 122
q-9 51 -5 127q3 49 16 87q36 104 137 104q54 0 90 -29q40 -31 40 -113q0 -15 -2 -31q-4 -36 -19 -62q-3 -5 -37 -51q-21 -27 -27 -57l56 -34q40 -23 73 -20q24 2 50 21q22 17 33 38q26 47 31 116q5 65 5 82q0 52 -16 92q-22 54 -57 73q-18 9 -41 11q-7 0 -73 1q-44 0 -122 2
q-22 1 -61 9q-44 16 -44 65q0 35 27 62q41 42 153 42q141 0 200 -30q41 -21 41 -68q0 -20 -13 -39t-33 -19q30 -19 48 -49q28 -47 34 -120zM432 555q1 11 -6.5 21.5t-21.5 10.5q-23 0 -29 -27q-2 -9 4.5 -19t15.5 -12q13 -3 24.5 5t12.5 21zM352 605q-36 9 -100 9
q-63 0 -114 -12q-17 -4 -30 -18t-13 -29q0 -24 35 -29q12 -2 169 -4h47q-15 12 -15 33q0 30 21 50z" />
    <glyph glyph-name="Eacute" unicode="&#xc9;" horiz-adv-x="533" 
d="M512 348q2 -19 2 -43q0 -107 -36 -177q-38 -74 -126 -114q-31 -14 -99 -14q-53 0 -80 8q-72 22 -110 77q-36 52 -35 124q1 62 34 95q-20 -1 -44 0l-1 40h38q-4 26 3 46q16 49 62 67q29 11 64 11q72 0 108 -36q41 -41 41 -107q0 -11 -1 -21h-148q-67 0 -92 -29
q-26 -32 -22 -87q7 -88 88 -130q33 -17 107 -17q126 0 174 107q37 82 32 170q-2 35 -4 48q-4 22 -15 51q-18 49 -62 69q-48 22 -142 19h-203v40q25 0 36 2q-16 17 -16 37q0 21 18 40q35 37 169 35q130 -2 186 -29q68 -33 61 -120q-39 0 -45 1q4 57 -47 84q-43 23 -152 23
q-101 0 -126 -19q-14 -10 -14 -24q0 -20 24 -28h109q104 0 154.5 -20t79.5 -71q21 -37 30 -108zM284 345q1 36 -31 63q-22 18 -60 18q-35 0 -64 -13q-33 -26 -27 -68h182z" />
    <glyph glyph-name="Ecircumflex" unicode="&#xca;" 
 />
    <glyph glyph-name="Edieresis" unicode="&#xcb;" horiz-adv-x="551" 
d="M512 218q-5 0 -17 1q-8 -65 -43 -112q5 -3 11 -9q3 -4 3 -10q0 -11 -11 -23t-23 -12q-4 0 -7 2q-3 6 -9 13q-45 -39 -108 -49v-17q-2 -18 -28 -18q-22 0 -27 15q-1 13 0 19q-63 8 -110 47q-4 -6 -9 -13q-4 -3 -10 -3q-11 0 -22 11t-11 24q0 4 2.5 7.5t11.5 12.5
q-36 49 -45 108q-8 -3 -18 -4q-18 3 -18 30q0 23 15 29q9 1 19 -2q7 64 42 113q-6 7 -15 13q-3 4 -3 10q0 11 11 23t22 12q4 0 7.5 -2.5t12.5 -15.5q37 39 112 54q0 6 -2 14q3 18 30 18q22 0 27 -16q0 -5 -1 -16q61 -6 109 -46q5 7 10 11.5t11 4.5q11 0 22 -11.5t11 -23.5
q0 -4 -2.5 -7.5t-13.5 -13.5q36 -45 46 -111q18 2 14 2q18 -3 18 -31q0 -23 -14 -28zM387 395q-38 32 -89 40q0 -23 -3 -61q-3 -46 -3 -49q22 -5 33 -17q8 12 62 87zM452 268q1 18 -10.5 49.5t-23.5 40.5q-33 -30 -76 -70q11 -12 12 -32q38 3 98 12zM265 325q-3 37 -12 110
q-60 -8 -93 -44q40 -47 68 -83q15 14 37 17zM454 222q-39 3 -101 6q-3 -15 -13 -30l78 -65q26 26 36 89zM324 245q0 21 -14.5 35.5t-34.5 14.5t-34 -14.5t-14 -35.5t14 -36.5t34 -15.5t34.5 15.5t14.5 36.5zM212 288q-25 21 -83 67q-30 -30 -34 -92q40 -2 103 -6q1 15 14 31
zM388 101q-10 13 -66 77q-11 -8 -34 -15q5 -34 14 -105q55 9 86 43zM209 198q-9 13 -11 31q-19 -2 -100 -13q0 -34 35 -87q45 41 76 69zM260 163q-19 6 -32 15q-21 -26 -64 -81q53 -40 91 -40q5 62 5 106z" />
    <glyph glyph-name="Igrave" unicode="&#xcc;" horiz-adv-x="942" 
d="M918 185q-16 -101 -102 -154q-32 -20 -84 -28q-58 -9 -117 3q-45 5 -84 32q-84 58 -84 183q0 112 66 157q12 8 59 15h84q3 46 -36 67q-13 7 -40 5q-25 -2 -38 -8q-37 -17 -37 -67q-9 1 -33 1q-3 28 -29 50q-35 29 -95 23q-30 -3 -63 -20t-47 -39q-1 -3 -1 -12
q85 3 131 -36q43 -37 57 -119q12 -71 -2.5 -132.5t-64.5 -91.5q-24 -15 -61 -15q-31 0 -48.5 12.5t-20.5 14.5q-9 9 -14 25q-17 -53 -86 -52q-63 1 -90 57q-13 27 -13 70q0 46 16 72h-19v49q45 43 170 158q1 13 1 32q-4 29 -43 29q-22 0 -35 -11q-27 -22 -23 -107h-41
q-3 76 11 107q24 52 84 52q67 0 86 -52q52 52 146 52q79 0 107 -54q9 26 37 40q22 12 46 13q106 4 119 -71q15 62 88 70q10 1 19 1q74 0 99 -55q15 -34 3 -60q-22 -1 -37 -1q9 33 -6 51q-19 23 -67 24q-26 0 -48 -19q-23 -22 -24 -53h114q41 -4 65 -31q31 -42 31 -113
q0 -30 -6 -64zM733 245h-98q-9 -39 7 -64q12 -19 39 -19q18 0 34 9q24 13 24 50q0 17 -6 24zM885 227q2 108 -51 128q-15 -20 -43 -55q-5 -8 -23 -28q8 -27 8 -52q0 -49 -29.5 -72t-65.5 -23t-63 22q-24 19 -24 71q0 14 2 26q4 37 42 38q34 -2 94 0q13 15 60 76h-193
q-91 0 -109 -85q-4 -21 -4 -44q0 -61 26 -114q35 -71 170 -74q87 -2 146 51q55 49 57 135zM382 242q-11 43 -23 63q-25 40 -77 50q-30 2 -89 1l-134 -121h29q2 -7 2 -16t-2 -17q-7 -11 -16 -34q-6 -34 -1 -65q10 -59 64 -62q17 -1 34 14t19 41t2 117h41q0 -87 4 -108
q10 -49 41 -60q12 -4 25 -4q38 0 64 37q24 34 24 102q0 35 -7 62z" />
    <glyph glyph-name="Iacute" unicode="&#xcd;" horiz-adv-x="0" 
d="M-107 562q-6 -30 -41 -40q-33 -9 -53.5 5.5t-25.5 35.5q-4 42 19 62q-60 6 -96 7q-22 0 -84 -3q-35 -2 -47.5 -16.5t-12.5 -57.5h-40q-2 55 23 83q14 16 60 25q22 4 120 5q56 0 106 -9q40 -8 60.5 -32.5t11.5 -64.5zM-141 578q0 30 -28 30q-11 0 -18 -11.5t-6 -21.5
q2 -26 28 -24q24 2 24 27z" />
    <glyph glyph-name="Icircumflex" unicode="&#xce;" horiz-adv-x="425" 
d="M345 601q-6 -73 -32 -91h-43q21 20 31 56q8 29 6 49q-10 88 -89 89q-41 1 -62 -30q-19 -26 -19 -67q0 -26 7 -40q10 -20 31 -23q27 -4 36 16q8 16 8 34q-1 -47 -1 34h41q2 -28 -1 -58q-4 -43 -43 -58t-72 1q-47 22 -47 95q0 39 12 65q32 70 111 70q66 0 102 -48
q29 -38 24 -94zM405 252q4 -23 4 -51q0 -81 -31 -131q-22 -35 -69.5 -57.5t-109.5 -9.5q-29 6 -50 15q-36 15 -53 12q-43 -7 -45 -24l-35 1q-5 44 -3 83q3 55 23 97q7 14 75 81q54 53 57 85q2 24 2 38q0 77 -62 77q-38 0 -49 -48q-5 -25 -4 -82h-37q-1 39 0 63q3 105 95 105
q70 0 89 -71q5 -13 4 -32q-1 -32 -1 -35q2 -36 -17 -68q-9 -14 -41 -52q-4 -4 -36 -31q-25 -21 -38 -45q-21 -38 -23 -123q23 15 27 17q12 5 36 5q10 0 37 -10q33 -13 46 -16q19 -4 42 -4q49 0 75 19q57 43 57 131q0 33 -9 69q-15 59 -73 59h-83q-1 56 6 99q5 30 29 61
q21 27 63 27q28 0 52 -14q46 -27 42 -137h-36q4 112 -56 112q-69 0 -62 -113h59q40 0 72 -35q24 -26 31 -67z" />
    <glyph glyph-name="Idieresis" unicode="&#xcf;" horiz-adv-x="915" 
d="M898 250q-7 -139 -97 -204q-68 -49 -163 -47q-107 2 -167 58t-60 161q0 76 29 121q15 24 30 35q14 7 27 15q13 3 35 10q-77 66 -153 66q-36 0 -68.5 -10t-70.5 -40v-17q33 -1 82 -9q57 -25 76.5 -85t9.5 -132q-9 -66 -50 -114q-52 -60 -154 -58q-77 1 -130 42
q-21 16 -35 52.5t-14 75.5q0 25 7 46h-19v48l187 158q-7 15 -20 34q-18 9 -47 9q-52 0 -55 -67q-1 -17 0 -46h-43v53q1 101 104 101q63 0 92 -43q11 6 42 25t92 19q63 0 92 -13q45 -20 91 -56q15 -11 45 -38v-33q-141 7 -141 -137q0 -23 4 -49q13 -86 80 -119
q43 -21 116 -21q58 0 94 20q93 52 111 153q4 24 4 52q0 113 -48 180q-20 -36 -75 -51q-40 -11 -74 -7q-56 7 -92 49q-23 27 -23 80q0 24 9 39q-5 0 -16 1t-15 1h-24v37q102 -2 156 -12q84 -15 133 -56q115 -95 106 -277zM789 469q-22 41 -84 64q-52 19 -110 20
q-8 -18 -8 -37q0 -49 40 -77q32 -22 81 -16q57 7 81 46zM359 137q11 42 11 81q0 66 -28 104t-81 38h-73l-149 -115h36q-10 -22 -10 -62q0 -45 14 -74q29 -60 116 -67q59 -5 103 20q48 27 61 75z" />
    <glyph glyph-name="Eth" unicode="&#xd0;" 
 />
    <glyph glyph-name="Ntilde" unicode="&#xd1;" horiz-adv-x="533" 
d="M508 333q2 -25 2 -49q0 -93 -32 -156q-38 -74 -126 -114q-31 -14 -99 -14q-53 0 -80 8q-72 22 -110 77q-36 52 -35 124q1 62 34 95q-20 -1 -44 0l-1 40h38q-4 26 3 46q16 49 62 67q29 11 64 11q72 0 108 -36q41 -41 41 -107q0 -11 -1 -21h-148q-67 0 -92 -29
q-26 -32 -22 -87q7 -88 88 -130q33 -17 107 -17q62 0 112 34q44 31 65 77q28 61 28 130q0 17 -2 34q-3 34 -6 50q-5 25 -16 53q-16 40 -46.5 53t-110.5 15q-54 -1 -151 0q-23 1 -61 6q-40 13 -40 61q0 40 33 67q49 40 198 37q123 -3 178 -45q52 -40 47 -110h-45q6 41 -28 71
q-39 34 -156 39q-96 4 -151 -20q-28 -12 -28 -37q0 -27 47 -27h116q50 0 135 -7q62 -12 95 -69q22 -39 30 -120zM284 345q1 36 -31 63q-22 18 -60 18q-35 0 -64 -13q-33 -26 -27 -68h182z" />
    <glyph glyph-name="Ograve" unicode="&#xd2;" 
 />
    <glyph glyph-name="Oacute" unicode="&#xd3;" 
 />
    <glyph glyph-name="Ocircumflex" unicode="&#xd4;" 
 />
    <glyph glyph-name="Otilde" unicode="&#xd5;" 
 />
    <glyph glyph-name="Odieresis" unicode="&#xd6;" horiz-adv-x="533" 
d="M509 348q4 -23 4 -53q0 -100 -35 -167q-38 -74 -126 -114q-31 -14 -99 -14q-53 0 -80 8q-72 22 -110 77q-36 52 -35 124q1 62 34 95q-20 -1 -44 0v40h37q-4 26 3 46q16 49 62 67q29 11 64 11q72 0 108 -36q41 -41 41 -107q0 -11 -1 -21h-148q-67 0 -92 -29
q-26 -32 -22 -87q7 -88 88 -130q33 -17 107 -17q62 0 111.5 32t71.5 89q30 78 22 156q-6 54 -15 81q-16 49 -53 69q-27 15 -123 14h-65q-44 1 -57 1q-45 0 -61 6q-44 16 -44 65q0 35 27 62q41 42 153 42q141 0 200 -30q41 -21 41 -68q0 -20 -13 -39t-33 -19q22 -14 48 -51
q23 -33 34 -103zM432 555q1 11 -6.5 21.5t-21.5 10.5q-23 0 -29 -27q-2 -9 4.5 -19t15.5 -12q13 -3 24.5 5t12.5 21zM352 605q-36 9 -100 9q-63 0 -114 -12q-17 -4 -30 -18t-13 -29q0 -24 35 -29q12 -2 169 -4h47q-15 12 -15 33q0 30 21 50zM284 345q1 36 -31 63
q-22 18 -60 18q-35 0 -64 -13q-33 -26 -27 -68h182z" />
    <glyph glyph-name="multiply" unicode="&#xd7;" 
 />
    <glyph glyph-name="Oslash" unicode="&#xd8;" horiz-adv-x="428" 
d="M427 -198h-44q1 22 -3 22q-2 0 -8 -2q-24 -21 -64 -20q-14 0 -29 12.5t-19 28.5q-11 45 2 75q15 35 60 43q1 0 58 3q2 14 2 26q0 51 -34 52q-53 1 -53 -67h-40q1 11 3 37q2 7 15 35q-37 -5 -89 -2q-41 2 -75 14q-29 10 -54 35q-32 33 -37 76q-3 26 -3 48q0 135 109 165
q36 10 69 10h145q0 42 -30 55q-20 9 -32 12q-18 4 -52 5q-84 2 -108.5 -22.5t-23.5 -49.5h-49q0 40 25 68q41 46 152 46q105 0 143 -48q19 -24 24 -47q4 -17 4 -60h-101l-98 -2q-61 -5 -92 -30q-40 -33 -38 -102q1 -45 14 -70q16 -30 56 -47q36 -15 120 -13q99 3 128 24
q-2 -14 0 -36q28 -13 39 -46q10 -29 8 -103v-125zM384 -66q-45 4 -71 -12q-17 -11 -17 -39q0 -18 7.5 -30.5t26.5 -12.5t35.5 11t17.5 27q3 39 1 56z" />
    <glyph glyph-name="Ugrave" unicode="&#xd9;" horiz-adv-x="591" 
d="M570 248q-3 -70 -35 -128q-34 -61 -90.5 -91t-130.5 -30q-40 0 -79 10q-63 16 -101 71q-35 50 -36 113q-1 84 29 124.5t74 40.5h107q3 29 -14 51q-20 27 -59 27q-25 0 -44 -19q-24 -22 -24 -62h-42q-1 16 3 31q-24 5 -43 -20q-29 -37 -26 -87q0 -100 31 -173h-45
q-20 73 -23 89q-9 45 -7 100q2 65 40 101q34 32 86 34q3 5 27 27q24 18 76 18q48 0 65 -23q-9 39 -1 56q6 24 25 53q17 25 17 34q0 3 -1 6l-27 17l19 25q55 -22 105 -67q60 -54 92 -127q37 -84 32 -201zM472 428q12 25 -1 55q-21 49 -79 86q-44 -34 -44 -84q0 -13 4 -27
q6 -23 26 -39t43 -16q39 0 51 25zM529 295q-1 61 -21 109q-30 -31 -57 -40q-13 -4 -31 -4q-45 0 -68 24v-65h-147q-28 0 -45 -36q-16 -32 -16 -79q0 -60 26 -97q46 -66 147 -66q64 0 116 33.5t75 86t21 134.5z" />
    <glyph glyph-name="Uacute" unicode="&#xda;" 
 />
    <glyph glyph-name="Ucircumflex" unicode="&#xdb;" horiz-adv-x="648" 
d="M621 309q11 -99 -13 -176.5t-80 -111.5q-40 -25 -110 -24v41q41 -2 74 12q61 26 79 107q16 73 8 145q-15 125 -97 153q-21 7 -52 7q-58 0 -87 -28.5t-41 -91.5q23 1 66 -4q27 -3 48 -24q32 -31 34 -109q2 -71 -27 -122q-22 -39 -65 -62t-100 -21q-56 2 -103 41
q-60 50 -69 142q-10 0 -33 1q-32 58 -32 132q0 22 4 41q8 45 41 84q29 34 63 47q44 17 108 17h49l1 -38q-36 1 -62 -7q-41 -13 -70 -67q-19 -35 -26 -91q-7 -50 -1 -104q8 -77 48 -118q37 -38 96 -38q63 0 100 42t35 127q-2 59 -39 84q-11 7 -70 9v-76h-43v85q1 27 13 83
q24 61 65.5 85.5t114.5 22.5t118 -54t55 -141zM145 448q-36 -7 -60.5 -50t-24.5 -91q0 -20 7 -52q8 -35 16 -47q-2 85 5 115q17 77 57 125z" />
    <glyph glyph-name="Udieresis" unicode="&#xdc;" horiz-adv-x="504" 
d="M486 510q-40 0 -45 1q4 56 -48 84q-43 23 -151 23q-101 0 -126 -19q-14 -10 -14 -24q0 -20 24 -28h109q105 0 155 -21t74 -74q9 -20 12 -34q6 -24 8 -63q9 -198 -86 -297q-24 -25 -64 -42q-44 -19 -89 -19q-100 1 -162 59q-66 61 -66 182q0 76 30 129q33 57 88 58
q31 2 118 2v-45q-81 1 -87 1q-47 -5 -74 -38t-27 -97q0 -45 13 -94q40 -110 160 -110q54 0 100 29q38 24 60 61q41 69 41 184q0 17 -1 36q-2 31 -12 59q-19 52 -56 71q-43 24 -135 21h-199v40q21 0 32 2q-17 17 -17 38q0 20 18 39q35 37 169 35q131 -2 187 -29
q68 -33 61 -120z" />
    <glyph glyph-name="Yacute" unicode="&#xdd;" 
 />
    <glyph glyph-name="germandbls" unicode="&#xdf;" horiz-adv-x="0" 
d="M-85 551q-31 0 -42 1q0 34 -12 49q-20 25 -72 29q-32 -1 -77 -1q-66 1 -84 0q-25 -1 -44 -23q-12 -14 -12 -51h-44q-2 56 21 81q17 19 58 27q21 4 125 5q70 1 110 -10q27 -7 53 -32q23 -26 20 -75z" />
    <glyph glyph-name="agrave" unicode="&#xe0;" horiz-adv-x="504" 
d="M484 358q6 -61 -1 -118q-15 -118 -78.5 -181t-159.5 -62q-100 1 -162 59q-66 61 -66 182q0 76 30 129q33 57 88 58q31 2 118 2v-42l-88 1q-49 -5 -72 -40q-26 -39 -26 -105q0 -45 11 -87q40 -111 160 -111q114 0 165 85q39 65 39 162q0 33 -4 71q-9 81 -47 105
q-18 11 -45 13q-38 0 -76 1q-44 -1 -124 2q-21 1 -59 7q-45 16 -45 65q0 34 28 62q42 42 153 42q140 0 199 -30q42 -21 42 -67q0 -21 -13 -40t-33 -19q32 -22 45 -57q12 -30 12 -32q5 -18 9 -55zM423 555q1 11 -6.5 21.5t-21.5 10.5q-23 0 -29 -27q-2 -9 4 -19t16 -12
q13 -3 24.5 5t12.5 21zM344 605q-35 9 -100 9q-63 0 -115 -12q-18 -4 -30.5 -18t-12.5 -28q0 -25 35 -30q11 -2 169 -4h47q-14 12 -14 32q0 31 21 51z" />
    <glyph glyph-name="aacute" unicode="&#xe1;" horiz-adv-x="504" 
d="M485 504h-46q1 6 1 12q0 34 -28 59q-16 15 -59 26q-46 13 -97 14q-83 2 -148 -22q-29 -10 -29 -36q0 -24 43 -24h112q94 -1 141 -10q66 -13 90 -75q13 -35 19 -90q3 -29 3 -56q0 -149 -83 -237q-24 -25 -67 -45q-48 -22 -92 -22q-99 -1 -163 59t-64 179q0 76 30 129
q33 58 89 59q29 3 116 3v-45q-81 1 -87 1q-47 -5 -74 -38t-27 -97q0 -45 13 -94q40 -110 160 -110q54 0 100 29q38 24 60 61q42 71 42 179q0 24 -2 48q-1 17 -10 56q-19 48 -58 62q-23 7 -88 9q-55 -1 -152 0q-23 1 -62 6q-38 12 -38 59q0 40 33 65q58 43 196 40
q126 -3 178.5 -42.5t47.5 -111.5z" />
    <glyph glyph-name="acircumflex" unicode="&#xe2;" horiz-adv-x="533" 
d="M508 271q0 -93 -17 -148q-25 -80 -86 -112q-23 -12 -60 -12q-41 0 -63 16q-28 20 -37 48q-13 -37 -53 -54q-24 -10 -50 -10q-46 0 -77 27q-36 31 -50 100q-9 47 3 122q9 55 36 76h-38v37h29q0 62 13 82q19 30 64 40q40 9 73 -1q29 -9 50 -37q14 -18 18 -51v-70h-140
q-42 -11 -58 -66q-14 -49 -10 -102q7 -78 49 -105q15 -9 36 -9q35 0 59 26q20 22 22 70q1 21 1 96h44q0 -42 1 -84q3 -58 21 -82q20 -27 63 -27q21 0 36 9q56 33 71 133q9 58 5 115q-3 47 -5 60q-3 25 -13 54q-17 50 -58 72q-46 24 -139 22q-82 1 -203 0v39q25 0 36 2
q-16 17 -16 37q0 21 18 40q35 37 169 35q128 -2 184 -29q64 -32 57 -120l-39 1q4 57 -47 84q-43 23 -152 23q-101 0 -126 -19q-14 -10 -14 -24q0 -20 24 -28h109q101 0 150 -21q43 -18 75 -68q35 -55 35 -187zM222 362q0 43 -9 60q-15 28 -58 28q-27 0 -45 -12
q-29 -20 -26 -76h138z" />
    <glyph glyph-name="atilde" unicode="&#xe3;" horiz-adv-x="533" 
d="M506 265q0 -94 -15 -142q-25 -80 -86 -112q-23 -12 -60 -12q-41 0 -63 16q-28 20 -37 48q-13 -37 -53 -54q-24 -10 -50 -10q-46 0 -77 27q-36 31 -50 100q-9 47 3 122q9 55 36 76h-38v37h29q0 48 13 70q19 31 62 41q35 8 73 -3q30 -9 50 -36q13 -17 19 -51l1 -58h-140
q-44 -11 -60.5 -63.5t-9.5 -105.5q12 -82 47 -104q15 -9 38 -9q37 0 61 26q20 22 22 70q1 21 1 96h44q0 -42 1 -84q3 -58 21 -82q20 -27 64 -27q22 0 37 9q52 29 68 132q10 60 5 120q-8 112 -59 155q-30 25 -124 26q-44 0 -124 1q-43 2 -62 9q-42 15 -42 60q0 34 28 63
q41 42 153 42q141 0 200 -30q41 -21 41 -68q0 -61 -55 -62q21 -10 52 -57q36 -81 36 -176zM432 555q1 11 -6.5 21.5t-21.5 10.5q-23 0 -29 -27q-2 -9 4.5 -19t15.5 -12q13 -3 24.5 5t12.5 21zM352 605q-36 9 -100 9q-63 0 -114 -12q-17 -4 -30 -18t-13 -29q0 -24 35 -29
q12 -2 169 -4h47q-15 12 -15 33q0 30 21 50zM222 362q0 28 -10 48q-15 28 -58 28q-28 0 -46 -12q-26 -18 -24 -64h138z" />
    <glyph glyph-name="adieresis" unicode="&#xe4;" horiz-adv-x="533" 
d="M508 265q0 -87 -17 -142q-25 -80 -86 -112q-23 -12 -60 -12q-41 0 -63 16q-28 20 -37 48q-13 -37 -53 -54q-24 -10 -50 -10q-46 0 -77 27q-36 31 -50 100q-9 47 3 122q9 55 36 76h-38v37h29q0 62 13 82q19 30 64 40q40 9 73 -1q29 -9 50 -37q14 -18 18 -51v-70h-140
q-44 -11 -60.5 -63.5t-9.5 -105.5q12 -82 47 -104q15 -9 38 -9q37 0 61 26q20 22 22 70q1 21 1 96h44q0 -42 1 -84q3 -58 21 -82q20 -27 65 -27q22 0 38 9q54 30 70 133q8 54 4 119q-4 62 -22 110q-16 42 -44 58q-34 19 -110 21q-53 -1 -150 0q-23 1 -60 6q-37 12 -37 52
q0 38 35 68q48 41 191 38q127 -3 178.5 -42.5t46.5 -109.5h-45q2 7 2 14q0 40 -30 60q-49 34 -156 36q-112 2 -150 -18q-26 -14 -26 -38q0 -25 44 -25h110q94 -1 141 -10q55 -10 92 -73q33 -55 33 -184zM222 362q0 43 -9 60q-15 28 -58 28q-27 0 -45 -12q-29 -20 -26 -76
h138z" />
    <glyph glyph-name="aring" unicode="&#xe5;" horiz-adv-x="592" 
d="M575 263q-2 -82 -23 -148t-84 -102q-24 -14 -58 -14q-39 0 -61 17q-25 18 -32 34q-12 -12 -45 -35q-28 -16 -62 -16q-43 0 -75 26q-39 32 -52 108q-10 57 5 115q9 37 37 66q-11 -2 -29 -10q-38 -33 -41 -96q-3 -66 33 -136h-40q-33 83 -31 142q2 72 55 118q13 11 46 18
q0 60 7 75q16 36 56 50t82 1q35 -11 49 -29.5t20 -52.5v-86h-149q-38 -10 -54 -65q-17 -58 -1 -120q12 -48 38 -68q19 -15 47 -15q32 0 56.5 18t25.5 49v139h43q0 -138 14 -171.5t60 -33.5q33 0 56 21q46 42 58 133q6 45 6 81q0 75 -24 139q-19 50 -60 71q-46 22 -140 20
q-83 1 -204 0v40q24 0 35 2q-15 17 -15 37q0 21 18 40q36 38 169 36q108 -1 163 -23q87 -35 80 -126h-41q0 59 -48 85q-39 21 -151 21q-103 0 -126 -17q-14 -10 -14 -24q0 -21 24 -29h110q102 0 151 -20q46 -19 77 -70q19 -31 30 -91q10 -56 9 -104zM290 343q2 62 -10 78
q-16 22 -53 22q-31 0 -51 -20q-12 -12 -14 -30q-1 -6 -1 -50h129z" />
    <glyph glyph-name="ae" unicode="&#xe6;" horiz-adv-x="612" 
d="M685 -98q0 -88 -42 -119q-25 -19 -67 -16v35q39 0 52 20q17 25 17 76q0 53 -20 72q-17 16 -50 15v34q42 0 57 -6q53 -22 53 -111zM576 -57h-38q2 39 -11 39q-15 1 -15 -40h18q28 0 38 -52t-11 -88q-11 -20 -37 -30q-20 -11 -48 -4q-8 2 -25 7q-20 7 -21 7q-6 -3 -7 -13
h-39q-2 18 -2 43q1 13 12 47q3 6 18 19.5t20 22.5q10 18 10 47q0 34 -10 34q-9 0 -10 -17q0 3 0 -30h-39v27t9 41q-56 -6 -85 -6q-41 0 -71 6.5t-31 6.5q-15 4 -36 16q-64 36 -77 124q-4 25 -4 49q0 75 36 126q32 45 78 58q37 10 69 10h148q-1 36 -32 55q-27 17 -85 17
q-87 0 -109 -22q-25 -25 -24 -50q-77 0 -97 -69q-8 -27 -10 -151h-42q-1 22 0 89q1 95 37 131q30 30 73 33q2 19 16 35q41 46 151 46q106 0 144 -48q19 -24 24 -47q3 -16 3 -60h-101l-95 -2q-58 -5 -89 -30q-41 -32 -44 -102q-2 -47 12 -88q18 -55 60 -73t124 -15
q92 4 132 32v-42l-28 -14q31 -1 38 -35q1 -3 2 -33q1 -53 -18 -75q-6 -5 -21 -22.5t-17 -40.5q18 4 28 2q4 -1 14.5 -5.5t15.5 -4.5q30 1 41 18q16 24 10 60q-4 27 -25 30q-7 0 -28 2q0 50 2 61q3 16 14 30t38 14q17 0 28 -7q21 -13 19 -69z" />
    <glyph glyph-name="ccedilla" unicode="&#xe7;" horiz-adv-x="589" 
d="M564 260q2 -93 -16 -146q-25 -73 -75 -101q-25 -14 -61 -14q-40 0 -64 17.5t-31 33.5q-18 -28 -46.5 -39t-59.5 -11q-45 0 -76 25q-39 32 -52 108q-10 57 5 115q9 37 37 66q-11 -2 -29 -10q-38 -33 -41 -96q-3 -66 33 -136h-40q-33 83 -31 142q2 72 55 118q13 11 43 18
q0 21 1 41.5t7 31.5q18 33 58 47t82 1q34 -11 50 -32q13 -18 19 -51v-80h-149q-34 -8 -54 -65q-18 -53 -3 -118q11 -46 42 -70q18 -14 44 -14q30 0 54 18.5t27 49.5q2 21 2 137h44q0 -137 13.5 -170.5t59.5 -33.5q34 0 56 21q42 41 51 129q2 23 2 49q0 108 -29 169
q-20 41 -53 59q-38 21 -110 22q-53 -1 -150 0q-17 -1 -62 4q-42 9 -42 59q0 40 33 65q56 42 194 39q124 -3 179 -45q52 -40 47 -110h-46q1 6 1 12q0 34 -28 59q-42 37 -157 39q-112 2 -150 -18q-26 -14 -26 -38q0 -25 44 -25h111q94 -1 141 -10q61 -12 100 -73
q44 -69 46 -189zM288 343q2 55 -6 67q-17 26 -61 26q-34 0 -50 -20q-11 -14 -13 -28q-1 -5 -1 -45h131z" />
    <glyph glyph-name="egrave" unicode="&#xe8;" horiz-adv-x="533" 
d="M513 253q-1 -84 -21 -138q-31 -86 -93 -110q-16 -6 -37 -6q-43 0 -71 23q-21 18 -35 46q-14 -38 -59 -59q-20 -9 -46 -9q-51 0 -83 29q-43 39 -53 120q-12 101 7 170q7 25 13 38q13 28 34 46q39 34 106 34q39 -1 101 0v-36h-113q-51 -9 -74 -37t-31 -68q-11 -55 -5 -118
q7 -79 39 -113q23 -25 60 -25q31 0 50 19q33 33 33 109v50q-1 33 -1 48h48v-112q0 -54 16 -77q25 -36 61 -36q11 0 23 4q57 19 78 111q16 70 12 151q-3 63 -20 103q-22 52 -64 74q-47 24 -140 22q-82 1 -203 0v39q25 0 36 2q-16 17 -16 37q0 21 18 40q35 37 169 35
q122 -1 177 -31q73 -39 65 -118l-40 1q4 57 -47 84q-43 23 -152 23q-101 0 -126 -19q-14 -10 -14 -24q0 -20 24 -28h109q102 0 152 -21q47 -20 81 -75t32 -198z" />
    <glyph glyph-name="eacute" unicode="&#xe9;" horiz-adv-x="582" 
d="M563 268q1 -12 1 -26q0 -75 -18 -128q-23 -68 -78 -101q-23 -14 -58 -14q-38 0 -62 17.5t-31 33.5q-31 -51 -104 -51q-46 0 -78 26q-39 32 -52 108q-10 57 5 115q9 37 37 66q-11 -2 -29 -10q-38 -33 -41 -96q-3 -66 33 -136h-40q-33 83 -31 142q2 72 55 118q13 11 44 20
q0 47 9 63q19 34 57.5 47.5t82.5 0.5q34 -10 50 -31q13 -18 18 -51v-73h-153q-34 -9 -52.5 -65.5t-2.5 -119.5q12 -47 40 -68q19 -15 46 -15q30 0 54.5 18t29.5 49q2 13 2 139h42q0 -135 14 -172q12 -33 58 -33q33 0 57 22q44 40 51 130q2 25 2 52q0 128 -41 183
q-32 43 -75 52q-27 6 -91 5h-120q-40 0 -62 8q-46 16 -46 65q0 33 27 60q37 38 152 40q136 2 200 -30q48 -24 40 -78q-3 -19 -16.5 -33t-28.5 -14q38 -26 59 -61q34 -57 44 -174zM465 556q1 11 -6 21.5t-21 10.5q-23 0 -30 -26q-3 -9 4 -19t16 -12q33 -6 37 25zM385 606
q-36 9 -100 9q-62 0 -113 -12q-16 -4 -27.5 -18t-11.5 -29q0 -28 35 -30q13 -1 165 -3h46q-14 12 -14 34q0 31 20 49zM292 345q0 43 -10 58q-16 24 -58 24q-37 0 -51 -19.5t-14 -62.5h133z" />
    <glyph glyph-name="ecircumflex" unicode="&#xea;" horiz-adv-x="533" 
d="M518 252q-1 -67 -22 -135q-25 -81 -93 -110q-17 -7 -41 -7q-44 0 -71 22q-21 18 -35 46q-14 -38 -59 -59q-20 -9 -46 -9q-51 0 -83 29q-43 39 -53 120q-12 101 7 170q7 25 13 38q13 28 34 46q39 34 106 34q39 -1 101 0v-36h-113q-51 -9 -74 -37t-31 -68q-11 -55 -5 -118
q7 -79 39 -113q23 -25 60 -25q31 0 50 19q33 33 33 109v50q-1 33 -1 48h48v-112q0 -54 16 -77q25 -36 61 -36q12 0 24 4q60 22 80 113q14 61 9 149q-2 38 -5 55q-5 29 -19 55q-21 40 -47 53q-32 17 -108 19h-150q-25 0 -66 4q-40 9 -40 58q0 42 33 70q49 40 198 37
q123 -3 178 -45q52 -40 47 -110h-45q6 41 -28 71q-43 37 -156 39q-112 2 -150 -18q-26 -14 -26 -38q0 -25 44 -25h110q94 -1 141 -10q54 -10 96 -70t39 -200z" />
    <glyph glyph-name="edieresis" unicode="&#xeb;" horiz-adv-x="533" 
d="M515 259q2 -81 -19 -144q-27 -81 -95 -108q-18 -7 -42 -7q-41 0 -68 22q-21 18 -35 46q-14 -38 -59 -59q-20 -9 -46 -9q-51 0 -83 29q-43 39 -53 120q-12 101 7 170q7 25 13 38q13 28 34 46q39 34 106 34q39 -1 101 0v-36h-113q-51 -9 -74 -37t-31 -68q-11 -55 -5 -118
q7 -79 39 -113q23 -25 60 -25q31 0 50 19q33 33 33 109v50q-1 33 -1 48h48v-112q0 -54 16 -77q25 -36 64 -36q12 0 24 4q56 18 77 113q14 61 8 147q-2 38 -21 85q-22 58 -52 76q-23 14 -58 17h-61h-124q-37 0 -59 9q-44 18 -44 64q0 33 27 60q41 42 153 42q141 0 200 -30
q41 -21 41 -68q0 -20 -13 -40.5t-33 -21.5q34 -27 54 -70q32 -69 34 -169zM432 555q1 11 -6.5 21.5t-21.5 10.5q-23 0 -29 -27q-2 -9 4.5 -19t15.5 -12q13 -3 24.5 5t12.5 21zM352 606q-36 9 -100 9q-62 0 -114 -12q-18 -4 -30.5 -18t-12.5 -29q0 -25 35 -30q12 -2 169 -4
h47q-15 12 -15 34q0 32 21 50z" />
    <glyph glyph-name="igrave" unicode="&#xec;" horiz-adv-x="524" 
d="M505 338q5 -101 -12 -174q-24 -103 -87 -143q-34 -21 -85 -21q-95 0 -125 70q-22 52 -19 129q1 36 18 64q20 35 55 35q0 106 -77 106q-59 0 -85 -56q-18 -38 -26 -106q-2 -20 -2 -44q0 -92 29 -125q33 -37 94 -31q0 -5 1 -39q-11 -2 -23 -2q-46 0 -84 27q-42 31 -53 87
q-13 65 -5 138q9 82 33 120q45 70 128 70q47 0 77 -30q34 -34 36 -145q-13 -1 -27 -2.5t-23 -9.5q-25 -22 -25 -83q0 -45 18 -84q23 -49 86 -49q58 0 96 52q27 38 40 134q8 64 5 95q-4 33 -6 47q-5 24 -14 46q-16 38 -42 53q-34 19 -108 21q-61 1 -151 0q-45 -1 -62 5
q-40 13 -40 61q0 40 33 67q49 40 198 37q122 -3 178 -45q51 -39 48 -110h-42q1 6 1 12q0 33 -33 62q-17 15 -58 26q-46 12 -97 12q-117 0 -156 -20q-24 -12 -24 -36q0 -27 47 -27h110q94 -1 140 -13q64 -17 92 -67q24 -44 28 -114z" />
    <glyph glyph-name="iacute" unicode="&#xed;" horiz-adv-x="520" 
d="M502 338q6 -95 -13 -174q-24 -101 -87 -143q-33 -22 -84 -22q-95 0 -125 71q-20 48 -17 129q2 37 17 64q19 35 54 35q0 43 -17 72q-21 34 -61 34q-57 0 -84 -56q-23 -47 -27 -105q-3 -43 3 -88q7 -57 27 -80q34 -39 94 -33q-2 -12 -1 -39q-11 -2 -23 -2q-47 0 -84 27
q-42 31 -53 87q-13 67 -5 138q9 83 32 120q44 70 129 70q46 0 76 -30q34 -34 36 -145q-12 -1 -24 -3t-21 -9q-25 -22 -25 -85q0 -43 15 -79q9 -23 33 -37t52 -14q53 0 92 53q30 41 42 135q6 46 4 97q-4 31 -13 83q-14 52 -56 75q-46 24 -140 21h-203v40q25 0 36 2
q-16 17 -16 37q0 21 18 40q35 37 169 35q130 -2 186 -29q68 -33 61 -120q-39 0 -45 1q4 57 -47 84q-43 23 -152 23q-101 0 -126 -19q-14 -10 -14 -24q0 -20 24 -28h109q105 0 155 -19.5t74 -71.5q20 -44 25 -118z" />
    <glyph glyph-name="icircumflex" unicode="&#xee;" horiz-adv-x="533" 
d="M499 333q9 -88 -11 -169q-24 -97 -87 -141q-33 -23 -85 -23q-98 0 -127 81q-19 53 -14 118q8 99 72 99q0 43 -17 72q-21 34 -61 34q-57 0 -84 -56q-22 -45 -26 -105q-3 -43 2 -88q8 -58 27 -80q34 -39 94 -33q-2 -12 -1 -39q-11 -2 -23 -2q-46 0 -83 27q-42 31 -53 87
q-13 68 -6 138q9 83 32 120q44 70 129 70q46 0 76 -30q34 -34 36 -145q-13 -1 -25 -3q-15 -2 -24 -9q-25 -22 -25 -86q0 -42 13 -81q16 -49 87 -49q59 0 98 58q30 44 40 131q7 58 2 99q-7 60 -16.5 84.5t-35.5 50.5q-19 19 -124 20q-44 -1 -122 -1q-22 0 -61 7
q-44 16 -44 65q0 35 27 62q41 42 153 42q141 0 200 -30q41 -21 41 -68q0 -20 -13 -39t-33 -19q58 -34 72 -169zM432 555q1 11 -6.5 21.5t-21.5 10.5q-23 0 -29 -27q-2 -9 4.5 -19t15.5 -12q13 -3 24.5 5t12.5 21zM354 607q-33 9 -94 9q-64 0 -122 -13q-16 -4 -29 -18.5
t-13 -29.5q0 -24 34 -29q12 -2 169 -4h47q-15 13 -15 35q0 34 23 50z" />
    <glyph glyph-name="idieresis" unicode="&#xef;" horiz-adv-x="523" 
d="M499 510q-39 0 -45 1q4 57 -47 84q-43 23 -152 23q-101 0 -126 -19q-14 -10 -14 -24q0 -20 24 -28h109q105 0 154.5 -20t73.5 -72q28 -60 22 -173q-6 -107 -50 -174q-71 -107 -198 -109q-130 -2 -192 101q-40 66 -40 171q0 51 10 88q8 32 34 69q28 41 80 41q30 0 51 -17
q17 -13 17 -44q0 -4 -8 -55q0 -3 -8 -34q-6 -26 -5 -34q4 -63 59 -62q42 0 62 40q17 34 14 85q-5 83 -92 80v40q30 0 50 -3q46 -7 69 -52q20 -38 17 -94q-3 -66 -32 -98q-37 -41 -89 -41q-43 0 -73 28t-31 71q0 14 7 45q11 47 12 52q9 46 -13 51q-6 1 -11 1q-51 0 -70 -104
q-5 -27 -5 -56q0 -66 20 -115q42 -105 162 -112q61 -3 114 36t77 108q21 59 21 122q0 52 -14 107q-12 50 -55 71q-46 23 -140 20h-203v40q25 0 36 2q-16 17 -16 37q0 21 18 40q35 37 169 35q130 -2 186 -29q68 -33 61 -120z" />
    <glyph glyph-name="ntilde" unicode="&#xf1;" horiz-adv-x="516" 
d="M496 285q-8 -101 -48 -172q-29 -52 -83.5 -82.5t-111.5 -31.5q-133 -2 -195 101q-40 66 -40 171q0 51 10 88q8 32 34 69q28 41 80 41q30 0 51 -17q17 -13 17 -44q0 -4 -8 -55q0 -3 -8 -34q-6 -26 -5 -34q4 -64 64 -63q72 1 72 104q0 11 -1 22q-9 87 -92 84v36q27 0 52 -5
q42 -9 66 -51q20 -35 18 -93q-2 -65 -32 -98q-37 -41 -89 -41q-43 0 -73 28t-31 71q0 14 7 45q11 47 12 52q9 46 -13 51q-6 1 -11 1q-51 0 -70 -104q-5 -27 -5 -56q0 -66 20 -115q42 -105 162 -112q57 -3 110 34q57 40 78 109t21 146q0 53 -11 83q-15 41 -44 56
q-32 16 -110 18q-54 -1 -151 0q-23 1 -61 6q-39 13 -39 58q0 40 34 68q51 42 196 39q122 -3 177 -45q49 -38 46 -110h-43q6 41 -28 71q-43 37 -156 39q-112 2 -150 -18q-26 -14 -26 -40t44 -26h110q49 -1 133 -7q70 -10 103 -73q27 -51 18 -164z" />
    <glyph glyph-name="ograve" unicode="&#xf2;" horiz-adv-x="527" 
d="M503 329q7 -79 -3 -141q-12 -75 -45 -127q-29 -47 -73 -58q-15 -4 -30 -4q-34 0 -56 16q-26 18 -26 53q0 29 27.5 49.5t27.5 33.5q0 17 -64 17q-37 0 -45 -2q-23 -4 -23 -22q0 -7 26 -30t26 -47q0 -34 -24.5 -51t-57.5 -17q-95 0 -129 112q-16 52 -16 120q0 32 4 64
q14 117 80 153q28 15 66 15q44 0 60 -15t16 -36q0 -15 -11 -28q-10 -6 -32 -38q-6 -13 -6 -26q0 -25 19 -40q14 -11 44 -11t45 13q29 24 29 65q0 21 -7 37q-6 13 -11 19q-9 12 -22 18q-9 4 -44 4v36q59 3 82 -20q34 -34 38 -77q7 -68 -39 -109q-26 -23 -71 -23q-40 0 -65 16
q-35 23 -35 70q0 20 7 37q4 10 33 40q6 6 6 12q0 21 -39 21q-36 0 -58 -23q-26 -28 -39 -79q-15 -58 -11 -121q4 -62 23 -104q28 -59 80 -60q42 -1 42 28q0 8 -5 16q-1 1 -31 33q-15 16 -15 37q0 52 111 49q107 -3 106 -51q0 -11 -8 -19.5t-17 -17t-27 -31.5q-4 -8 -4 -15
q0 -31 38 -29q41 2 68 37q36 46 45 113q10 72 4 125q-7 69 -23 104q-22 50 -60 67q-43 20 -137 18q-82 1 -202 0v36q25 0 36 2q-15 17 -15 37q0 38 41 56q46 20 145 19q130 -1 187 -29.5t53 -119.5l-42 1q1 6 1 14q0 48 -38 71q-44 26 -158 26q-110 0 -130 -16
q-12 -10 -12 -24q0 -26 26 -35h109q103 0 154 -22q48 -21 73 -73q21 -43 28 -119z" />
    <glyph glyph-name="oacute" unicode="&#xf3;" horiz-adv-x="516" 
d="M495 278q-6 -102 -47 -170q-30 -49 -84.5 -78.5t-113.5 -30.5q-130 -2 -192 101q-40 66 -40 171q0 51 10 88q8 32 34 69q28 41 80 41q30 0 51 -17q17 -13 17 -44q0 -4 -8 -55q0 -3 -8 -34q-6 -26 -5 -34q4 -64 64 -63q72 1 72 104q0 11 -1 22q-9 87 -92 84v36q28 0 52 -5
q39 -8 63 -50.5t21 -93.5q-3 -66 -32 -98q-37 -41 -89 -41q-43 0 -73 28t-31 71q0 14 7 45q11 47 12 52q9 46 -13 51q-6 1 -11 1q-51 0 -70 -104q-5 -27 -5 -56q0 -66 20 -115q44 -110 162 -112q64 -1 113 36.5t74 106.5q17 46 17 115q0 47 -7 89q-3 19 -16 43t-26 32
q-18 12 -45 14q-6 0 -76 1q-44 0 -122 2q-22 1 -61 9q-44 16 -44 65q0 35 27 62q41 42 153 42q141 0 200 -30q41 -21 41 -68q0 -20 -13 -39t-33 -19q25 -16 47 -63q27 -58 21 -161zM432 555q1 11 -6.5 21.5t-21.5 10.5q-23 0 -29 -27q-2 -9 4.5 -19t15.5 -12q13 -3 24.5 5
t12.5 21zM352 605q-36 9 -100 9q-63 0 -114 -12q-17 -4 -29.5 -18t-12.5 -29q0 -25 34 -30q12 -2 169 -4h47q-15 12 -15 33q0 31 21 51z" />
    <glyph glyph-name="ocircumflex" unicode="&#xf4;" horiz-adv-x="524" 
d="M503 329q8 -75 -3 -141q-12 -75 -45 -127q-29 -47 -73 -58q-15 -4 -30 -4q-34 0 -56 16q-26 18 -26 53q0 29 27.5 49.5t27.5 33.5q0 17 -64 17q-37 0 -45 -2q-23 -4 -23 -22q0 -7 26 -30t26 -47q0 -34 -24.5 -51t-57.5 -17q-95 0 -129 112q-16 52 -16 120q0 32 4 64
q14 117 80 153q28 15 66 15q44 0 60 -15t16 -36q0 -15 -11 -28q-10 -6 -32 -38q-6 -13 -6 -26q0 -25 19 -40q14 -11 44 -11t45 13q29 24 29 65q0 21 -7 37q-6 13 -11 19q-9 12 -22 18q-9 4 -44 4v36q59 3 82 -20q34 -34 38 -77q7 -68 -39 -109q-26 -23 -71 -23q-40 0 -65 16
q-35 23 -35 70q0 20 7 37q4 10 33 40q6 6 6 12q0 21 -39 21q-36 0 -58 -23q-26 -28 -39 -79q-15 -58 -11 -121q4 -62 23 -104q28 -59 80 -60q42 -1 42 28q0 8 -5 16q-1 1 -31 33q-15 16 -15 37q0 52 111 49q107 -3 106 -51q0 -11 -8 -19.5t-17 -17t-27 -31.5q-4 -8 -4 -15
q0 -31 38 -29q41 2 68 37q36 46 45 113q11 84 5 126q-3 24 -6.5 48t-16.5 52q-18 40 -48 54.5t-108 16.5q-52 -1 -147 0q-23 1 -61 6q-42 14 -42 61q0 36 31 62q49 41 198 38q119 -2 171 -43q42 -33 42 -93q0 -8 -1 -17h-35q1 6 1 13q0 37 -28 62q-42 37 -155 41
q-92 3 -150 -21q-31 -13 -31 -40q0 -32 50 -32h109q101 -1 142 -9q67 -13 91 -68q14 -32 17 -42q7 -24 12 -77z" />
    <glyph glyph-name="otilde" unicode="&#xf5;" horiz-adv-x="527" 
d="M506 352q2 -15 2 -39q0 -113 -36.5 -185.5t-126.5 -113.5q-31 -14 -98 -14q-53 0 -80 8q-72 22 -110 77q-36 52 -35 124q1 78 54 115q15 10 53 20h149q0 41 -30 64q-26 20 -66 20q-33 0 -59 -15q-32 -24 -30 -75h-45q-2 30 5 52t25.5 41.5t34.5 25.5q32 12 68 12
q71 0 105 -37q38 -41 38 -104q0 -12 -2 -24h-144q-58 0 -83 -20q-37 -29 -32 -96q7 -88 89 -130q33 -17 106 -17q63 0 111 31q44 29 66 76q36 78 33 172q-1 50 -18 95q-19 51 -61 71q-46 22 -141 19h-203v38q19 0 36 2q-16 17 -16 38t18 40q34 35 169 35q124 0 187 -30.5
t56 -119.5l-41 1q4 58 -47 85q-41 22 -152 22q-102 0 -126 -18q-14 -11 -14 -24q0 -21 24 -29h109q105 0 153.5 -19.5t76.5 -72.5q9 -18 13 -28q7 -23 15 -73z" />
    <glyph glyph-name="odieresis" unicode="&#xf6;" horiz-adv-x="524" 
d="M503 329q8 -75 -3 -141q-12 -75 -45 -127q-29 -47 -73 -58q-15 -4 -30 -4q-34 0 -56 16q-26 18 -26 53q0 29 27.5 49.5t27.5 33.5q0 17 -64 17q-37 0 -45 -2q-23 -4 -23 -22q0 -7 26 -30t26 -47q0 -34 -24.5 -51t-57.5 -17q-95 0 -129 112q-16 52 -16 120q0 32 4 64
q14 117 80 153q28 15 66 15q44 0 60 -15t16 -36q0 -15 -11 -28q-10 -6 -32 -38q-6 -13 -6 -26q0 -25 19 -40q14 -11 44 -11t45 13q29 24 29 65q0 21 -7 37q-6 13 -11 19q-9 12 -22 18q-9 4 -44 4v36q59 3 82 -20q34 -34 38 -77q7 -68 -39 -109q-26 -23 -71 -23q-40 0 -65 16
q-35 23 -35 70q0 20 7 37q4 10 33 40q6 6 6 12q0 21 -39 21q-36 0 -58 -23q-26 -28 -39 -79q-15 -58 -11 -121q4 -62 23 -104q28 -59 80 -60q42 -1 42 28q0 8 -5 16q-1 1 -31 33q-15 16 -15 37q0 52 111 49q107 -3 106 -51q0 -11 -8 -19.5t-17 -17t-27 -31.5q-4 -8 -4 -15
q0 -31 38 -29q41 2 68 37q33 42 44 113q12 79 6 126q-6 43 -8 52q-4 24 -13 42q-23 48 -45 59q-32 15 -123 17q-40 -1 -118 0q-18 1 -57 8q-46 14 -46 62q0 29 24 54q40 41 151 41q146 0 199 -27q47 -24 39 -79q-3 -19 -16 -31.5t-28 -12.5q19 -12 41 -49q15 -26 21 -43
q8 -27 14 -81zM432 555q1 11 -6.5 21.5t-21.5 10.5q-23 0 -29 -27q-2 -9 4.5 -19t15.5 -12q13 -3 24.5 5t12.5 21zM358 608q-31 9 -98 9t-122 -13q-17 -4 -30 -18.5t-13 -29.5q0 -25 35 -31q23 -4 168 -6h54q-18 14 -18 41q0 36 24 48z" />
    <glyph glyph-name="divide" unicode="&#xf7;" horiz-adv-x="495" 
d="M482 255q0 -133 -90 -207q-60 -49 -144 -49q-105 0 -169 68q-61 65 -66 166q-5 97 40 169.5t122 95.5q95 39 133 72q35 29 34 62h56q-6 -50 -45 -77q-29 -17 -79 -49q40 1 86 -18q34 -14 68 -53q54 -62 54 -180zM440 236q4 229 -182 232q-89 1 -148 -58q-55 -56 -52 -177
q2 -76 58 -133.5t130 -57.5q87 0 143 63q50 56 51 131zM155 503l-44 -1l-1 165h45v-164z" />
    <glyph glyph-name="oslash" unicode="&#xf8;" horiz-adv-x="435" 
d="M432 -58q0 -64 -69 -90q-46 -17 -138 -16q-117 2 -170 54q-43 43 -37 108l44 -1q-4 -53 36 -88q34 -29 122 -31q63 -1 117 10q16 3 34.5 17t18.5 33q0 32 -7 43q-10 15 -42 15l8 12q-56 -8 -111 -8q-42 0 -75 5q-16 3 -33 6t-38 15q-63 36 -77 124q-4 26 -4 50
q0 74 36 126q31 44 77 57q36 10 69 10h145q0 42 -30 55q-20 9 -32 12q-18 4 -52 5q-84 2 -108.5 -22.5t-23.5 -49.5h-49q0 40 25 68q41 46 152 46q105 0 143 -48q19 -24 24 -47q4 -17 4 -60h-101q-95 -1 -96 -2q-58 -5 -89 -30q-40 -32 -43 -102q-3 -52 14 -95
q20 -52 63 -68t119 -13q92 4 131 32v-42q23 -7 31 -18q12 -18 12 -72z" />
    <glyph glyph-name="ugrave" unicode="&#xf9;" horiz-adv-x="527" 
d="M508 304q0 -104 -36.5 -176.5t-126.5 -113.5q-31 -14 -98 -14q-53 0 -80 8q-72 22 -110 77q-36 52 -35 124q1 78 54 115q15 10 53 20h149q0 41 -30 64q-26 20 -66 20q-33 0 -59 -15q-32 -24 -30 -75h-45q-2 30 5 52t25.5 41.5t34.5 25.5q32 12 68 12q71 0 105 -37
q38 -41 38 -104q0 -12 -2 -24h-144q-58 0 -83 -20q-37 -29 -32 -96q7 -88 89 -130q33 -17 106 -17q63 0 112 32q45 29 67 77q18 39 27 96q7 49 4 74q-6 48 -13 67q-17 47 -57 75q-28 19 -119 20q-43 -1 -122 1q-22 0 -61 6q-44 16 -44 65q0 35 27 62q37 38 155 40
q135 2 196 -28q40 -20 40 -67q0 -21 -13 -40t-33 -19q28 -20 46 -49q38 -64 38 -149zM429 555q2 10 -5.5 21t-21.5 11q-23 0 -29 -27q-3 -9 3.5 -19t16.5 -12q13 -3 24 5t12 21zM352 605q-36 9 -100 9q-63 0 -114 -12q-17 -4 -30 -18t-13 -29q0 -24 35 -29q12 -2 169 -4h47
q-15 12 -15 33q0 30 21 50z" />
    <glyph glyph-name="uacute" unicode="&#xfa;" horiz-adv-x="527" 
d="M508 352q2 -17 2 -39q0 -110 -37.5 -184t-127.5 -115q-31 -14 -98 -14q-53 0 -80 8q-72 22 -110 77q-36 52 -35 124q1 78 54 115q15 10 53 20h149q0 41 -30 64q-26 20 -66 20q-33 0 -59 -15q-32 -24 -30 -75h-45q-2 30 5 52t25.5 41.5t34.5 25.5q32 12 68 12
q71 0 105 -37q38 -41 38 -104q0 -12 -2 -24h-144q-58 0 -83 -20q-37 -29 -32 -96q7 -88 89 -130q33 -17 106 -17q121 0 177 109q39 76 33 170q-5 77 -23 105q-20 32 -43 44q-34 19 -107 20h-157q-45 1 -61 6q-40 13 -40 60q0 39 33 66q49 40 198 37q120 -3 173 -44t48 -111
h-41q1 6 1 13q0 42 -29 63q-54 38 -155 39q-105 1 -151 -17q-32 -13 -32 -40q0 -32 51 -32h109q72 -2 80 -2q38 -2 60 -7q63 -15 93 -61q24 -37 33 -107z" />
    <glyph glyph-name="ucircumflex" unicode="&#xfb;" 
 />
    <glyph glyph-name="thorn" unicode="&#xfe;" 
 />
    <glyph glyph-name="ydieresis" unicode="&#xff;" horiz-adv-x="623" 
d="M561 498h-43q2 44 -13 70q-25 43 -97 50q-7 0 -37 -1h-35q-67 1 -94 -12q-21 -10 -39 -38q-14 -21 -14 -61h-41q-1 49 14 76q23 39 53 57q44 26 142 23q47 -1 61 -3q32 -2 56 -9q47 -13 69 -58q18 -36 18 -94zM593 215q-5 -81 -33 -130.5t-84 -69.5q-41 -14 -113 -15v40
q83 0 110 19q51 35 65 85t14 106q0 59 -17 104q-23 62 -72 92q-34 21 -81 21q-28 0 -52 -10q-18 -8 -36 -15q-21 -10 -44 -28v-16q33 -1 82 -9q57 -25 76.5 -85t9.5 -132q-9 -66 -50 -114q-52 -60 -154 -58q-77 1 -130 42q-21 16 -35 52.5t-14 75.5q0 25 7 46h-27v44
l195 162q-7 15 -20 34q-18 9 -47 9q-52 0 -55 -67q-1 -17 0 -46h-43v53q1 101 104 101q63 0 92 -43q11 6 42 25t92 19q62 0 92 -13q57 -25 84 -65q17 -25 32 -78t10 -136zM369 137q11 42 11 81q0 66 -28 104t-81 38h-73l-139 -115h26q-10 -22 -10 -62q0 -45 14 -74
q29 -60 116 -67q59 -5 103 20q48 27 61 75z" />
    <glyph glyph-name="OE" unicode="&#x152;" horiz-adv-x="517" 
d="M497 250q-7 -139 -97 -204q-68 -49 -163 -47q-108 2 -168 59.5t-60 164.5q0 72 27 115q18 29 61 53q18 10 95 10v-34q-141 7 -141 -136q0 -23 4 -50q14 -87 80 -119q44 -21 116 -21q57 0 94 20q94 51 110 153q4 24 4 51q0 116 -47 181q-21 -36 -75 -51q-40 -11 -74 -7
q-56 7 -92 49q-24 28 -24 81q0 24 9 38q-4 0 -15.5 1t-15.5 1h-23v37q78 -1 105 -3q62 -5 101 -20q-3 5 -3 15q0 22 19 38q-58 6 -94 7q-22 0 -84 -3q-18 -1 -26 -3q-14 -3 -22 -13q-13 -15 -13 -58h-39q-2 56 23 83q15 17 59 25q22 4 121 5q54 0 106 -9q40 -7 60 -33
q16 -21 16 -44q0 -10 -3 -20q-8 -27 -38 -35q116 -98 107 -277zM393 578q0 30 -28 30q-11 0 -17.5 -11.5t-5.5 -21.5q3 -25 26 -24q25 2 25 27zM388 469q-23 41 -85 64q-52 19 -109 20q-8 -18 -8 -38q0 -49 39 -76q32 -22 83 -16q53 7 80 46z" />
    <glyph glyph-name="oe" unicode="&#x153;" horiz-adv-x="517" 
d="M433 551q-30 0 -36 1q0 29 -12 46q-19 28 -74 32q-34 0 -81 1q-36 1 -84 -2q-18 -1 -26 -3q-14 -3 -22 -13q-13 -15 -13 -58h-39q-2 56 23 83q15 17 59 25q22 4 121 5q71 1 111 -10q27 -7 53 -32q23 -22 20 -75zM497 250q-7 -139 -97 -204q-68 -49 -163 -47
q-107 2 -166.5 58.5t-59.5 163.5q0 74 27 120q15 26 59 50q18 10 95 10v-34q-141 7 -141 -136q0 -23 4 -50q14 -87 80 -119q44 -21 116 -21q57 0 94 20q94 51 110 153q4 24 4 51q0 116 -47 181q-21 -36 -75 -51q-40 -11 -74 -7q-56 7 -92 49q-24 28 -24 81q0 24 9 38
q-4 0 -15.5 1t-15.5 1h-23v37q101 -2 156 -12q83 -15 132 -56q116 -96 107 -277zM388 469q-23 41 -85 64q-52 19 -109 20q-8 -18 -8 -38q0 -49 39 -76q32 -22 83 -16q53 7 80 46z" />
    <glyph glyph-name="Scaron" unicode="&#x160;" 
 />
    <glyph glyph-name="scaron" unicode="&#x161;" 
 />
    <glyph glyph-name="Ydieresis" unicode="&#x178;" horiz-adv-x="600" 
d="M554 498h-42q2 42 -14 70q-24 43 -96 50q-7 0 -38 -1h-35q-67 1 -94 -12q-21 -10 -39 -38q-13 -20 -13 -61h-41q-2 39 15 76t51 57q44 26 142 23q47 -1 62 -3q32 -2 56 -9q46 -13 69 -58q17 -33 17 -94zM588 272q3 -56 -3 -94q-10 -57 -27 -89q-20 -39 -63 -67
q-35 -23 -88 -22v40q54 0 81 25q61 56 61 163q0 23 -3 50q-8 79 -53 136q-41 52 -113 52q-18 0 -38 -3q-78 -13 -104 -55q-1 -6 -1 -15q85 3 131 -36q43 -37 57 -119q12 -71 -2.5 -132.5t-64.5 -91.5q-24 -15 -61 -15q-31 0 -48.5 12.5t-20.5 14.5q-9 9 -14 25
q-17 -53 -86 -52q-63 1 -90 57q-13 27 -13 70q0 46 16 72h-27l2 43q47 44 176 164q1 13 1 32q-4 29 -43 29q-22 0 -35 -11q-27 -22 -23 -107h-41q-3 76 11 107q24 52 84 52q73 0 89 -51q50 51 143 51q90 0 144 -55q36 -37 50 -89t16 -91zM382 242q-11 43 -23 63
q-25 40 -77 50q-30 2 -89 1l-134 -121h29q2 -7 2 -16t-2 -17q-7 -11 -16 -34q-6 -34 -1 -65q10 -59 64 -62q17 -1 34 14t19 41t2 117h41q0 -87 4 -108q10 -49 41 -60q12 -4 25 -4q38 0 64 37q24 34 24 102q0 35 -7 62z" />
    <glyph glyph-name="florin" unicode="&#x192;" horiz-adv-x="692" 
d="M671 134q4 -95 -35 -132q-20 -19 -67 -17q-48 2 -74 40q-10 15 -17 47q-7 29 -5 49q-1 79 40 172q33 75 74 134h-95v39h144v-38q-14 -22 -60 -100q-27 -48 -41 -96q-21 -72 -20 -112q1 -44 18 -71q14 -22 46 -22q20 0 32 10q21 18 21 95q23 -1 39 2zM529 -21
q0 -71 -44 -114q-38 -36 -111 -36q-40 0 -79 15q-44 18 -61 48q-15 26 -15 60q0 32 16 53q-29 7 -34 9q-16 5 -37 18q-60 37 -72 118q-4 27 -4 54q0 79 31.5 123t78.5 56q38 10 69 10h145q0 41 -31 55q-20 9 -31 12q-18 4 -52 5q-81 2 -109 -22q-22 -19 -17 -55
q-83 0 -94 -63q-10 -26 -11 -69q1 50 1 -81h-43q-1 12 0 88q1 93 38 130q21 21 66 30q5 18 7 22q5 13 15 23q39 39 142 39q106 0 144 -48q19 -23 24 -47q3 -16 3 -60h-101l-95 -2q-58 -5 -89 -30q-41 -32 -44 -102q-2 -47 12 -88q18 -55 60 -73t124 -15q92 4 132 32v-45
q-46 -30 -185 -30q-15 -26 -7 -71q5 -28 37 -44q28 -14 65 -13q71 2 95 41q17 28 17 54q0 7 -2 13q12 1 46 0z" />
    <glyph glyph-name="circumflex" unicode="&#x2c6;" horiz-adv-x="200" 
d="M135 510h-22l-44 72v68h63v-68l-23 1z" />
    <glyph glyph-name="breve" unicode="&#x2d8;" horiz-adv-x="648" 
d="M621 309q11 -99 -13 -176.5t-80 -111.5q-40 -25 -110 -24v41q41 -2 74 12q61 26 79 107q16 73 8 145q-15 125 -97 153q-21 7 -52 7q-58 0 -87 -28.5t-41 -91.5q23 1 66 -4q27 -3 48 -24q32 -31 34 -109q2 -71 -27 -122q-22 -39 -65 -62t-100 -21q-56 2 -103 41
q-60 50 -69 142q-10 0 -33 1q-32 58 -32 132q0 22 4 41q8 45 41 84q29 34 63 47q44 17 108 17h49l1 -38q-36 1 -62 -7q-41 -13 -70 -67q-19 -35 -26 -91q-7 -50 -1 -104q8 -77 48 -118q37 -38 96 -38q63 0 100 42t35 127q-2 59 -39 84q-11 7 -70 9v-76h-43v85q1 27 13 83
q24 61 65.5 85.5t114.5 22.5t118 -54t55 -141zM145 448q-36 -7 -60.5 -50t-24.5 -91q0 -20 7 -52q8 -35 16 -47q-2 85 5 115q17 77 57 125z" />
    <glyph glyph-name="dotaccent" unicode="&#x2d9;" horiz-adv-x="497" 
d="M482 255q0 -133 -90 -207q-60 -49 -144 -49q-91 0 -157 60q-73 67 -78 174q-5 97 40 169.5t122 95.5q59 25 84 40q3 6 3 12q0 25 -25.5 36t-65.5 11q-60 0 -90 -31q-15 -16 -20 -46q-4 -13 4 -42q2 -7 17 -33h-44q-12 27 -16 53q-6 36 10 70q19 40 61 55q39 14 115 9
q44 -3 68 -24q11 -10 14 -16q6 -10 8 -31q44 32 44 71h56q-6 -50 -45 -77q-29 -17 -79 -49q40 1 86 -18q34 -14 68 -53q54 -62 54 -180zM440 236q4 229 -182 232q-89 1 -148 -58q-55 -56 -52 -177q2 -76 58 -133.5t130 -57.5q87 0 143 63q50 56 51 131z" />
    <glyph glyph-name="ring" unicode="&#x2da;" horiz-adv-x="495" 
d="M482 255q0 -133 -90 -207q-60 -49 -144 -49q-91 0 -157 60q-73 66 -78 174q-4 90 34.5 160t107.5 98v175h45l-1 -158q145 63 143 124h56q-6 -50 -45 -77q-29 -17 -79 -49q40 1 86 -18q34 -14 68 -53q54 -62 54 -180zM440 236q4 229 -182 232q-89 1 -148 -58
q-55 -56 -52 -177q2 -76 58 -133.5t130 -57.5q87 0 143 63q50 56 51 131z" />
    <glyph glyph-name="ogonek" unicode="&#x2db;" horiz-adv-x="591" 
d="M570 248q-3 -70 -35 -128q-34 -61 -90.5 -91t-130.5 -30q-40 0 -79 10q-63 16 -101 71q-35 50 -36 113q-1 84 29 124.5t74 40.5h107q3 29 -14 51q-20 27 -59 27q-25 0 -44 -19q-24 -22 -24 -62h-42q-1 16 3 31q-24 5 -43 -20q-29 -37 -26 -87q0 -100 31 -173h-45
q-20 73 -23 89q-9 45 -7 100q2 65 40 101q34 32 86 34q3 5 27 27q24 18 76 18q48 0 65 -23q-9 39 -1 56q6 24 25 53q17 25 17 34q0 3 -1 6l-27 17l19 25q55 -22 105 -67q60 -54 92 -127q37 -84 32 -201zM472 428q12 25 -1 55q-21 49 -79 86q-44 -34 -44 -84q0 -13 4 -27
q6 -23 26 -39t43 -16q39 0 51 25zM529 295q-1 61 -21 109q-30 -31 -57 -40q-13 -4 -31 -4q-45 0 -68 24v-65h-147q-28 0 -45 -36q-16 -32 -16 -79q0 -60 26 -97q46 -66 147 -66q64 0 116 33.5t75 86t21 134.5z" />
    <glyph glyph-name="tilde" unicode="&#x2dc;" horiz-adv-x="200" 
d="M135 582l-43 -72h-23l26 73l-23 -1v68h63v-68z" />
    <glyph glyph-name="Delta" unicode="&#x394;" horiz-adv-x="838" 
d="M846 -93q0 -47 -32.5 -70.5t-92.5 -19.5q-42 3 -67 11v45q33 -15 88 -11q59 4 60 43q1 46 -56 46h-30v26q5 5 19 24q-14 1 -40.5 -2.5t-42.5 -3.5q-44 0 -69.5 5.5t-32.5 8.5q-13 4 -35 17q-64 36 -77 124q-4 25 -4 49q0 75 36 126q32 45 78 58q37 10 69 10h145
q0 41 -31 55q-20 9 -31 12q-18 4 -52 5q-80 2 -109 -22q-24 -24 -22 -50h-32q-9 36 -42 55q-39 22 -95 16q-30 -3 -63 -20t-47 -39q-1 -3 -1 -12q85 3 131 -36q43 -37 57 -119q12 -71 -2.5 -132.5t-64.5 -91.5q-24 -15 -61 -15q-31 0 -48.5 12.5t-20.5 14.5q-9 9 -14 25
q-17 -53 -86 -52q-63 1 -90 57q-13 27 -13 70q0 46 16 72h-19v49q46 43 171 158v32q-4 29 -43 29q-22 0 -35 -11q-27 -22 -23 -107h-40q-4 77 10 108q23 51 84 51q73 0 89 -51q50 51 143 51q78 0 117 -47q36 47 148 47q106 0 144 -48q19 -23 24 -47q3 -16 3 -60h-101l-95 -2
q-58 -5 -89 -30q-41 -32 -44 -102q-2 -47 12 -88q18 -55 60 -73t124 -15q92 4 132 32v-45q-10 -10 -40 -37q37 0 54 -17q19 -20 19 -68zM382 242q-11 43 -23 63q-25 40 -77 50q-30 2 -89 1l-134 -121h29q2 -7 2 -16t-2 -17q-7 -11 -16 -34q-6 -34 -1 -65q10 -59 64 -62
q17 -1 34 14t19 41t2 117h41q0 -87 4 -108q10 -49 41 -60q12 -4 25 -4q38 0 64 37q24 34 24 102q0 35 -7 62z" />
    <glyph glyph-name="Delta" unicode="&#x2206;" horiz-adv-x="838" 
d="M846 -93q0 -47 -32.5 -70.5t-92.5 -19.5q-42 3 -67 11v45q33 -15 88 -11q59 4 60 43q1 46 -56 46h-30v26q5 5 19 24q-14 1 -40.5 -2.5t-42.5 -3.5q-44 0 -69.5 5.5t-32.5 8.5q-13 4 -35 17q-64 36 -77 124q-4 25 -4 49q0 75 36 126q32 45 78 58q37 10 69 10h145
q0 41 -31 55q-20 9 -31 12q-18 4 -52 5q-80 2 -109 -22q-24 -24 -22 -50h-32q-9 36 -42 55q-39 22 -95 16q-30 -3 -63 -20t-47 -39q-1 -3 -1 -12q85 3 131 -36q43 -37 57 -119q12 -71 -2.5 -132.5t-64.5 -91.5q-24 -15 -61 -15q-31 0 -48.5 12.5t-20.5 14.5q-9 9 -14 25
q-17 -53 -86 -52q-63 1 -90 57q-13 27 -13 70q0 46 16 72h-19v49q46 43 171 158v32q-4 29 -43 29q-22 0 -35 -11q-27 -22 -23 -107h-40q-4 77 10 108q23 51 84 51q73 0 89 -51q50 51 143 51q78 0 117 -47q36 47 148 47q106 0 144 -48q19 -23 24 -47q3 -16 3 -60h-101l-95 -2
q-58 -5 -89 -30q-41 -32 -44 -102q-2 -47 12 -88q18 -55 60 -73t124 -15q92 4 132 32v-45q-10 -10 -40 -37q37 0 54 -17q19 -20 19 -68zM382 242q-11 43 -23 63q-25 40 -77 50q-30 2 -89 1l-134 -121h29q2 -7 2 -16t-2 -17q-7 -11 -16 -34q-6 -34 -1 -65q10 -59 64 -62
q17 -1 34 14t19 41t2 117h41q0 -87 4 -108q10 -49 41 -60q12 -4 25 -4q38 0 64 37q24 34 24 102q0 35 -7 62z" />
    <glyph glyph-name="Omega" unicode="&#x3a9;" horiz-adv-x="591" 
d="M570 248q-3 -70 -35 -128q-34 -61 -90.5 -91t-130.5 -30q-40 0 -79 10q-63 16 -101 71q-35 50 -36 113q-1 84 29 124.5t74 40.5h107q3 29 -14 51q-20 27 -59 27q-25 0 -44 -19q-24 -22 -24 -62h-42q-1 16 3 31q-24 5 -43 -20q-29 -37 -26 -87q0 -100 31 -173h-45
q-20 73 -23 89q-9 45 -7 100q2 65 40 101q34 32 86 34q3 5 27 27q24 18 76 18q48 0 65 -23q-9 39 -1 56q6 24 25 53q17 25 17 34q0 3 -1 6l-27 17l19 25q55 -22 105 -67q60 -54 92 -127q37 -84 32 -201zM472 428q12 25 -1 55q-21 49 -79 86q-44 -34 -44 -84q0 -13 4 -27
q6 -23 26 -39t43 -16q39 0 51 25zM529 295q-1 61 -21 109q-30 -31 -57 -40q-13 -4 -31 -4q-45 0 -68 24v-65h-147q-28 0 -45 -36q-16 -32 -16 -79q0 -60 26 -97q46 -66 147 -66q64 0 116 33.5t75 86t21 134.5z" />
    <glyph glyph-name="Omega" unicode="&#x2126;" horiz-adv-x="591" 
d="M570 248q-3 -70 -35 -128q-34 -61 -90.5 -91t-130.5 -30q-40 0 -79 10q-63 16 -101 71q-35 50 -36 113q-1 84 29 124.5t74 40.5h107q3 29 -14 51q-20 27 -59 27q-25 0 -44 -19q-24 -22 -24 -62h-42q-1 16 3 31q-24 5 -43 -20q-29 -37 -26 -87q0 -100 31 -173h-45
q-20 73 -23 89q-9 45 -7 100q2 65 40 101q34 32 86 34q3 5 27 27q24 18 76 18q48 0 65 -23q-9 39 -1 56q6 24 25 53q17 25 17 34q0 3 -1 6l-27 17l19 25q55 -22 105 -67q60 -54 92 -127q37 -84 32 -201zM472 428q12 25 -1 55q-21 49 -79 86q-44 -34 -44 -84q0 -13 4 -27
q6 -23 26 -39t43 -16q39 0 51 25zM529 295q-1 61 -21 109q-30 -31 -57 -40q-13 -4 -31 -4q-45 0 -68 24v-65h-147q-28 0 -45 -36q-16 -32 -16 -79q0 -60 26 -97q46 -66 147 -66q64 0 116 33.5t75 86t21 134.5z" />
    <glyph glyph-name="pi" unicode="&#x3c0;" horiz-adv-x="504" 
d="M506 -93q0 -47 -32.5 -70.5t-92.5 -19.5q-42 3 -67 11v45q33 -15 88 -11q59 4 60 43q1 46 -56 46h-30v26q5 5 19 24q-14 1 -40.5 -2.5t-42.5 -3.5q-44 0 -69.5 5.5t-32.5 8.5q-13 4 -35 17q-64 36 -77 124q-4 25 -4 49q0 75 36 126q32 45 78 58q37 10 69 10h145
q0 41 -31 55q-20 9 -31 12q-18 4 -52 5q-85 2 -109.5 -22.5t-24.5 -49.5q-78 0 -97 -68q-9 -33 -9 -150h-43v88q1 94 40 132q27 26 70 33q20 52 68 68q30 11 100 11q106 0 144 -48q19 -23 24 -47q3 -16 3 -60h-101l-95 -2q-58 -5 -89 -30q-41 -32 -44 -102q-2 -47 12 -88
q18 -55 60 -73t124 -15q92 4 132 32v-45q-10 -10 -40 -37q37 0 54 -17q19 -20 19 -68z" />
    <glyph glyph-name="endash" unicode="&#x2013;" horiz-adv-x="523" 
d="M524 605q-7 -32 -37 -73q-14 -19 -52 -49q13 -8 24 -32q17 -37 4 -61h-37q9 31 -7 51q-20 25 -66 25q-25 0 -48 -21.5t-24 -51.5h113q45 -5 65 -31q32 -41 32 -112q0 -30 -6 -65q-17 -102 -102 -154q-31 -19 -85 -28q-59 -9 -116 3q-46 5 -84 32q-85 59 -85 183
q0 112 66 157q12 8 59 15h82q3 47 -33 65q-14 7 -38 8q-22 0 -34 -5q-46 -20 -40 -69h-37q-8 65 43 97q24 16 53 17q107 5 119 -71q16 65 81 71q-1 18 0 109h40v-108q10 -1 30 -6q12 11 37 37q37 43 44 67h39zM452 227q3 131 -78 131h-208q-91 0 -109 -85q-5 -21 -5 -45
q0 -60 26 -113q34 -71 170 -74q87 -2 147 51q55 49 57 135z" />
    <glyph glyph-name="emdash" unicode="&#x2014;" horiz-adv-x="0" 
d="M-82 595q0 -24 -8 -50q-9 -31 -23 -41h-43q21 20 31 56q8 29 6 49q-11 89 -89 89q-46 0 -67 -38q-18 -32 -13 -78q4 -40 36 -44q28 -4 37 16q7 15 7 68l41 1q2 -29 -1 -59q-4 -41 -43 -58q-37 -16 -72 1q-47 22 -47 95q0 34 12 65q35 70 111 70q66 0 102 -48
q24 -32 23 -94z" />
    <glyph glyph-name="quoteleft" unicode="&#x2018;" horiz-adv-x="511" 
d="M485 185q-17 -102 -102 -154q-33 -20 -85 -28q-20 -3 -30 -4q-1 -24 0 -61h-36v62q-16 1 -50 6q-48 7 -84 32q-85 59 -85 183q0 113 66 157q23 15 59 15h82q4 47 -40 66q-33 14 -65 -1q-41 -19 -35 -66h-39q-1 8 -1 16q0 42 34 72q29 25 60 26q82 3 98 -40v69q0 47 38 47
h67v-34h-49q-20 0 -20 -37v-46q23 34 74 40q9 1 19 1q73 0 98 -55q16 -35 4 -60h-37q9 31 -7 50q-20 24 -66 24q-26 0 -49 -19q-26 -22 -26 -53h115q46 -6 66 -31q32 -41 32 -112q0 -30 -6 -65zM448 225q3 131 -75 131h-105v-123h118v-35h-118v-157q77 2 127.5 50t52.5 134z
M232 41v157h-120v35h120v122h-67q-89 0 -107 -82q-4 -20 -4 -45q0 -70 25 -113q39 -67 153 -74z" />
    <glyph glyph-name="quoteright" unicode="&#x2019;" horiz-adv-x="511" 
d="M464 507h-36q0 40 -8 54q-20 35 -74 49q-19 5 -88 5t-108 -15q-27 -10 -45 -38q-13 -20 -13 -56h-37q-3 45 13 73q20 34 57 54q51 27 154 22q38 -2 51 -3q19 -3 45 -10q55 -15 77 -60q17 -33 12 -75zM485 185q-17 -102 -102 -154q-33 -20 -85 -28q-20 -3 -30 -4
q-1 -24 0 -61h-36v62q-16 1 -50 6q-48 7 -84 32q-85 59 -85 183q0 113 66 157q23 15 59 15h82q4 47 -40 66q-33 14 -65 -1q-41 -19 -35 -66h-39q-1 8 -1 16q0 42 34 72q29 25 60 26q82 3 98 -40v69q0 47 38 47h67v-34h-49q-20 0 -20 -37v-46q23 34 74 40q9 1 19 1
q73 0 98 -55q16 -35 4 -60h-37q9 31 -7 50q-20 24 -66 24q-26 0 -49 -19q-26 -22 -26 -53h115q46 -6 66 -31q32 -41 32 -112q0 -30 -6 -65zM448 225q3 131 -75 131h-105v-123h118v-35h-118v-157q77 2 127.5 50t52.5 134zM232 41v157h-120v35h120v122h-67q-89 0 -107 -82
q-4 -20 -4 -45q0 -70 25 -113q39 -67 153 -74z" />
    <glyph glyph-name="quotesinglbase" unicode="&#x201a;" horiz-adv-x="527" 
d="M524 605q-7 -32 -37 -73q-14 -19 -52 -49q13 -8 24 -32q17 -37 4 -61h-37q9 32 -8 52.5t-65 21.5q-25 0 -48 -20.5t-24 -50.5h113q44 -4 65 -31q32 -41 32 -112q0 -30 -6 -65q-17 -102 -102 -154q-31 -19 -85 -28q-59 -9 -116 3q-46 5 -84 32q-85 59 -85 183
q0 112 66 157q12 8 59 15h82q3 47 -33 65q-32 16 -69 -1q-44 -20 -38 -65h-42q-7 49 31 84q31 29 65 30q108 3 119 -71q17 63 89 70q32 3 61 -7q6 7 22 24q1 26 -7 43q-21 42 -100 48q-34 0 -80 1q-59 1 -89 -11.5t-43 -38.5q-11 -22 -11 -67h-42q-1 48 14 82q23 51 76 69
q41 14 117 11q31 -1 63 -2.5t55 -8.5q39 -12 62 -39q10 -11 14 -26q2 -11 5 -22q20 25 26 44h39zM452 227q3 131 -78 131h-208q-91 0 -109 -85q-5 -21 -5 -45q0 -60 26 -113q34 -71 170 -74q87 -2 147 51q55 49 57 135z" />
    <glyph glyph-name="quotedblleft" unicode="&#x201c;" horiz-adv-x="738" 
d="M718 583q-2 -22 -11 -51q-10 -32 -21 -40h-35q16 15 26 52.5t6 60.5q-15 87 -95 86q-46 -1 -67 -36q-14 -23 -14 -53q0 -22 8 -37q13 -24 34 -29q30 -7 44 13q10 14 10 63h33q1 -14 -3 -54q-8 -45 -56 -56q-31 -7 -59 6q-45 21 -46 89q-1 36 12 64q29 66 109 66
q65 0 100 -48q29 -39 25 -96zM713 246q-5 -103 -32.5 -158t-72.5 -76q-41 -19 -83 -7q-66 19 -66 110q15 1 39 0q0 -49 30 -66q16 -9 34 -9q30 0 53 23q28 27 44 82q18 59 16 127q-6 193 -73 193q-26 0 -36 -25q-5 -13 -8 -52q-4 -46 0 -152q-21 -1 -41 0v75q-2 71 -11 109
q-11 45 -38 45q-32 0 -36 -70q-3 -55 4 -131q4 -124 -43 -198q-37 -59 -140 -67q-67 -5 -120 21q-37 18 -65 12q-20 -4 -24 -29h-31q-5 109 35 151q9 9 36 38q-29 26 -29 109q0 22 3 44q4 37 23 74t41 53q46 34 109 34q80 0 114 -37q33 33 76 74h51q-33 -29 -99 -100
q7 -6 20 -30q10 51 30 69q28 25 61 20q39 -6 50 -57q6 27 14 38q17 24 58 24q76 0 100 -133q10 -55 7 -128zM394 247q-2 50 -11 81q-11 40 -42 85q-35 51 -109 51q-38 0 -70 -18q-60 -35 -64 -131q-3 -89 38 -122q26 -21 58 -21q40 0 61 33q15 31 12 99h38q1 -16 -1 -67
q-6 -59 -52 -89q-35 -18 -79 -12q-38 5 -61 30q-15 -12 -50 -59q-10 -17 -15 -49q19 9 43 9q15 0 30 -4q84 -22 112 -22q16 0 31 2q84 13 111 81q23 56 20 123z" />
    <glyph glyph-name="quotedblright" unicode="&#x201d;" horiz-adv-x="739" 
d="M713 246q-5 -103 -32.5 -158t-72.5 -76q-41 -19 -83 -7q-66 19 -66 110q15 1 39 0q0 -49 30 -66q16 -9 34 -9q30 0 53 23q28 27 44 82q18 59 16 127q-6 193 -73 193q-26 0 -36 -25q-5 -13 -8 -52q-4 -46 0 -152q-21 -1 -41 0v75q-2 71 -11 109q-11 45 -38 45
q-32 0 -36 -70q-3 -55 4 -131q4 -124 -43 -198q-37 -59 -140 -67q-67 -5 -120 21q-37 18 -65 12q-20 -4 -24 -29h-31q-5 109 35 151q9 9 36 38q-29 26 -29 109q0 22 3 44q4 37 23 74t41 53q46 34 109 34q80 0 114 -37q33 33 76 74h51q-33 -29 -99 -100q7 -6 20 -30
q10 51 30 69q28 25 61 20q39 -6 50 -57q3 12 6 23q5 16 18 26q-18 7 -28.5 26t-8.5 38q4 34 24 57q-32 1 -78 1q-31 -1 -63 -1q-26 -1 -42 -7q-41 -14 -53 -35q-17 -28 -19 -69h-37q-1 39 12.5 75.5t59 59t155.5 19.5q33 -1 67 -2.5t58 -7.5q45 -12 63 -45q10 -18 10 -40
q0 -49 -36 -62q45 -28 64 -125q10 -56 7 -130zM638 558q0 42 -40 42q-18 0 -29.5 -15t-10.5 -29q3 -33 40 -33q40 0 40 35zM394 247q-2 50 -11 81q-11 40 -42 85q-35 51 -109 51q-38 0 -70 -18q-60 -35 -64 -131q-3 -89 38 -122q26 -21 58 -21q40 0 61 33q15 31 12 99h38
q1 -16 -1 -67q-6 -59 -52 -89q-35 -18 -79 -12q-38 5 -61 30q-15 -12 -50 -59q-10 -17 -15 -49q19 9 43 9q15 0 30 -4q84 -22 112 -22q16 0 31 2q84 13 111 81q23 56 20 123z" />
    <glyph glyph-name="quotedblbase" unicode="&#x201e;" horiz-adv-x="518" 
d="M524 605q-7 -32 -37 -73q-14 -19 -52 -49q13 -8 24 -32q17 -37 4 -61h-37q9 32 -7 51q-20 24 -66 24q-26 0 -48.5 -21t-23.5 -51h114q44 -5 64 -31q32 -41 32 -112q0 -30 -6 -65q-17 -102 -102 -154q-31 -19 -85 -28q-59 -9 -116 3q-46 5 -84 32q-85 59 -85 183
q0 112 66 157q12 8 59 15h82q3 47 -33 65q-14 7 -38 7q-22 -1 -34 -7q-46 -19 -37 -66h-40q-7 49 31 84q31 30 65 30q48 0 71 -10q41 -18 48 -63q15 61 85 72q-10 6 -19 25t-6 35q4 26 25 47q-64 7 -80 6q-70 -3 -101 -12t-51.5 -39t-20.5 -77h-38q-1 9 -1 18q0 36 17 70
q20 39 59 60q51 27 152 24q61 -2 107 -15q70 -20 70 -79q0 -11 -3 -23q28 34 37 60h39zM415 555q3 37 -36 37q-13 0 -21 -12t-7 -24q3 -28 31 -30q11 -1 21.5 7t11.5 22zM452 227q3 131 -78 131h-208q-91 0 -109 -85q-5 -21 -5 -45q0 -60 26 -113q34 -71 170 -74
q87 -2 147 51q55 49 57 135z" />
    <glyph glyph-name="dagger" unicode="&#x2020;" horiz-adv-x="428" 
d="M400 505h-43q2 39 -12 61q-23 36 -80 41h-68q-54 1 -84 -11q-20 -6 -30 -31q-10 -17 -10 -60h-43q-3 44 12.5 77t46.5 51q39 23 128 20q53 -2 54 -2q29 -2 51 -8q43 -12 63 -53q15 -31 15 -85zM456 -21q0 -71 -44 -114q-40 -39 -115 -39q-31 0 -59 9q-55 18 -77 57
q-16 28 -16 62q0 27 13 47q-17 3 -66 25q-63 36 -77 124q-4 26 -4 50q0 74 36 126q31 44 77 57q36 10 69 10h145q0 42 -30 55q-20 9 -32 12q-18 4 -52 5q-84 2 -108.5 -22.5t-23.5 -49.5h-49q0 40 25 68q41 46 152 46q105 0 143 -48q19 -24 24 -47q4 -17 4 -60h-101
q-95 -1 -96 -2q-58 -5 -89 -30q-40 -32 -43 -102q-3 -52 14 -95q20 -52 63 -68t119 -13q92 4 131 32v-45q-45 -30 -185 -30q-15 -27 -6 -71q6 -28 37 -44q27 -14 64 -13q70 2 95 41q18 28 18 54q0 7 -2 13q12 1 46 0z" />
    <glyph glyph-name="daggerdbl" unicode="&#x2021;" horiz-adv-x="305" 
d="M275 -200h-249l-1 47h195v771h-192v47h247v-865z" />
    <glyph glyph-name="bullet" unicode="&#x2022;" horiz-adv-x="416" 
d="M400 -119h-356v43h309v94q-40 -23 -125 -23q-44 0 -69 5.5t-32 8.5q-13 5 -35 17q-63 36 -77 124q-4 26 -4 50q0 74 36 126q31 44 77 57q36 10 69 10h145q0 42 -30 55q-20 9 -32 12q-18 4 -52 5q-84 2 -108.5 -22.5t-23.5 -49.5h-49q0 40 25 68q41 46 152 46
q105 0 143 -48q19 -24 24 -47q4 -17 4 -60h-101q-95 -1 -96 -2q-58 -5 -89 -30q-40 -32 -43 -102q-3 -60 17 -103q24 -53 77 -65q42 -10 102 -8q75 3 98 34q14 0 44 1v-196z" />
    <glyph glyph-name="ellipsis" unicode="&#x2026;" horiz-adv-x="572" 
d="M556 262q0 -100 -31 -164t-93 -86q-44 -16 -90 -11v38q35 0 51 9q-4 9 -12 14q-11 6 -12 7q-13 17 -16 33q-8 -42 -57 -77q-39 -28 -93 -25q-73 4 -108 32q-50 40 -71 127q-14 57 -9 139q5 90 40 135q23 30 38 42q25 22 59 28q26 5 60 4v-42q-43 0 -66 -9
q-30 -12 -51 -44q-35 -53 -37 -139q-1 -68 16 -126.5t53 -83.5q32 -22 76 -22q35 0 59 14q50 30 61 93q12 69 -4 109q-11 29 -33 39q-13 6 -39.5 7l-26.5 1l-4 -33v-49h-39v79q7 47 23 111q31 55 68 75q34 18 97 18q-10 6 -17 23.5t-5 34.5q4 33 29 51q-32 1 -79 1
q-69 -3 -99.5 -12t-49 -35t-19.5 -74h-40q-9 46 9.5 83.5t60.5 59.5q51 28 152 24q33 -1 67 -3t58 -8q47 -13 67 -47q12 -20 12 -43q0 -60 -56 -72q36 -21 60 -60q41 -69 41 -166zM523 15q0 -37 -10 -63q-21 -54 -83 -87q-65 -35 -150 -35t-148 31.5t-79 83.5q-5 27 -5 57
l43 -1q-4 -40 17 -63q18 -29 78 -47q50 -14 92 -14q43 0 89 13q57 16 81 44q31 36 31 81h44zM468 552q2 17 -9.5 30t-30.5 13q-17 0 -28.5 -13.5t-11.5 -26.5q5 -33 37 -37q39 0 43 34zM512 218q7 41 -4 106q-17 96 -72 127q-27 15 -76 15q-39 0 -62 -10q-33 -14 -54 -53
q-16 -31 -19 -61q48 -1 63 -3q32 -4 47 -18q37 -34 33 -94q25 34 73 34q12 0 22 -3q24 -6 49 -40zM490 157q0 26 -17 42t-42 16q-52 0 -52 -64q0 -38 31 -56q19 -5 25 -30q55 28 55 92z" />
    <glyph glyph-name="perthousand" unicode="&#x2030;" horiz-adv-x="518" 
d="M540 568q-38 -37 -95 -96q4 -5 12 -17q9 -18 9 -45q0 -26 -11 -46q35 -44 35 -122q0 -28 -5 -57q-17 -102 -102 -154q-31 -19 -85 -28q-59 -9 -116 3q-46 5 -84 32q-85 59 -85 183q0 113 66 157q12 8 59 15h82q4 49 -32 67q-13 7 -37 5q-22 -1 -35 -7q-34 -15 -38 -70
q-4 0 -38 -2q-6 52 30 88q31 31 65 32q108 3 118 -71q7 33 38 53q24 15 51 18q36 4 66 -8q5 44 -13 72q-28 45 -92 50q-35 -1 -82 -1q-51 1 -74 -17q-13 -10 -17 -14q-6 -7 -13 -21q-12 -24 -12 -70h-39q-1 51 14 85q19 41 52 59q42 23 111 20q46 -2 61 -3q31 -3 56 -10
q48 -14 69 -57q16 -33 16 -66q22 21 42 43h53zM423 379q12 36 -6 60q-22 30 -69 28q-24 -1 -45 -22.5t-22 -51.5q-1 -69 58 -68q67 1 84 54zM452 227q2 67 -19 100q-16 -22 -42 -30q-29 -9 -52 -9q-60 0 -87 47q-6 11 -9 23h-77q-91 0 -109 -85q-5 -22 -5 -46q0 -61 26 -110
q38 -73 170 -76q87 -2 147 51q55 49 57 135z" />
    <glyph glyph-name="guilsinglleft" unicode="&#x2039;" horiz-adv-x="416" 
d="M400 -119h-356v43h309v94q-40 -23 -125 -23q-43 0 -68.5 5.5t-32.5 8.5q-13 5 -35 17q-63 36 -77 124q-4 26 -4 50q0 74 36 126q31 44 77 57q36 10 69 10h145q0 42 -30 55q-20 9 -32 12q-18 4 -52 5q-84 2 -108.5 -22.5t-23.5 -49.5h-49q0 40 25 68q41 46 152 46
q105 0 143 -48q19 -24 24 -47q4 -17 4 -60h-101q-95 -1 -96 -2q-58 -5 -89 -30q-40 -32 -43 -102q-3 -60 17 -103q24 -53 77 -65q42 -10 102 -8q75 3 98 34q14 0 44 1v-196z" />
    <glyph glyph-name="guilsinglright" unicode="&#x203a;" horiz-adv-x="440" 
d="M408 602q9 -16 9 -34q0 -42 -36 -63q-16 -9 -51 -8q-28 4 -44 16q-19 10 -19 44q0 6 1 11q5 30 24 44q-29 1 -70 1q-63 -2 -90 -11t-43.5 -33.5t-17.5 -68.5h-42q-3 44 15 78q25 49 82 65q39 12 108 10q30 -1 60.5 -2t51.5 -7q45 -12 62 -42zM456 -21q0 -71 -44 -114
q-40 -39 -115 -39q-31 0 -59 9q-55 18 -77 57q-16 28 -16 62q0 27 13 47q-17 3 -66 25q-63 36 -77 124q-4 26 -4 50q0 74 36 126q31 44 77 57q36 10 69 10h145q0 42 -30 55q-20 9 -32 12q-18 4 -52 5q-84 2 -108.5 -22.5t-23.5 -49.5h-49q0 40 25 68q41 46 152 46
q105 0 143 -48q19 -24 24 -47q4 -17 4 -60h-101q-95 -1 -96 -2q-58 -5 -89 -30q-40 -32 -43 -102q-3 -52 14 -95q20 -52 63 -68t119 -13q92 4 131 32v-45q-45 -30 -185 -30q-15 -27 -6 -71q6 -28 37 -44q27 -14 64 -13q70 2 95 41q18 28 18 54q0 7 -2 13q12 1 46 0zM374 560
q0 32 -33 32q-15 0 -24.5 -11t-8.5 -23q2 -26 33 -26q33 0 33 28z" />
    <glyph glyph-name="fraction" unicode="&#x2044;" horiz-adv-x="607" 
d="M554 498h-42q2 42 -14 70q-24 43 -96 50q-7 0 -38 -1h-35q-67 1 -94 -12q-21 -10 -39 -38q-13 -20 -13 -61h-41q-2 39 15 76t51 57q44 26 142 23q47 -1 62 -3q32 -2 56 -9q46 -13 69 -58q17 -33 17 -94zM575 143q-28 -107 -130 -135q-28 -8 -88 -6q0 14 1 39q93 0 132 38
q46 45 50 130q3 51 -6 102q-10 61 -32 88q-49 61 -126 66q-22 1 -52.5 -8.5t-45.5 -22.5q-23 -21 -43 -49q40 2 68 -7q45 -15 65 -51q25 -46 25 -125q0 -81 -37 -130.5t-92 -63.5q-31 -8 -66 -8q-66 0 -100 22q-25 16 -34 26q-20 21 -34 60q-11 31 -11 139q0 21 2 56h37
q0 -27 32 -27q37 0 52 22q33 50 53 98q0 42 -20 59q-10 10 -35 10t-35 -10q-27 -27 -24 -90h-43q-4 60 19 98q28 43 87 43q38 0 56 -13q26 -19 28 -50q12 12 51 42q33 20 91 20q54 0 99 -17q49 -19 86 -82q31 -54 31 -161q0 -58 -11 -102zM348 213q-1 78 -33 110
q-29 29 -95 25q-10 -21 -21 -38q-27 -41 -51 -57q-18 -12 -50 -12q-23 0 -36 7q-1 -118 19 -149t44 -43q28 -14 78 -14q37 0 71 18q41 21 59 62q16 36 15 91z" />
    <glyph glyph-name="trademark" unicode="&#x2122;" horiz-adv-x="522" 
d="M478 498h-49q4 42 -12 67q-27 42 -89 47q-13 1 -76 2q-52 1 -89 -13q-24 -9 -38 -37q-11 -22 -11 -67h-48q-1 52 15 86.5t51 55.5q44 26 141 23q48 -1 62 -3q31 -2 56 -9q47 -13 69 -58q18 -36 18 -94zM502 122q0 -53 -30 -110q-26 -49 -82 -79.5t-125 -31.5
q-85 -1 -157 54t-88 167q-12 82 -1 143q13 75 42 120q48 75 117 107q32 15 97 15q60 0 93 -14q85 -36 112 -122q11 -36 11 -72q0 -33 -10 -74.5t-27 -67.5t-69 -49q-25 -11 -57 -11q-86 0 -120 63q-18 34 -18 86q0 32 8 58h-43v45h224v-46l-134 1q-9 -25 -9 -53
q0 -48 22 -74q28 -33 76 -33q42 0 68 25q46 45 43 128q-3 81 -51 126q-46 42 -122 42q-139 0 -196 -162q-16 -44 -16 -101q0 -88 28 -149q21 -47 74 -79q48 -29 96 -30q103 -2 157 64q43 52 43 114h44z" />
    <glyph glyph-name="partialdiff" unicode="&#x2202;" horiz-adv-x="542" 
d="M609 -101q1 -91 -37 -117q-28 -20 -70 -17v35q39 0 51 20q16 21 16 76t-19 72q-15 17 -48 14v36q37 0 56 -8q50 -22 51 -111zM503 -57h-38q2 39 -12 39q-15 1 -15 -40h19q30 0 38 -52t-12 -88q-11 -19 -35 -29.5t-50 -4.5q-10 2 -25 7q-18 8 -20 7q-6 -3 -7 -13h-39
q-2 18 -2 43q1 13 12 47q14 13 37 42q11 20 11 47q0 34 -11 34q-8 0 -9 -17q0 6 0 -30h-39v27q0 28 8 40q-36 -5 -85 -5q-41 0 -69.5 6t-31.5 7q-15 4 -36 16q-63 36 -77 124q-4 26 -4 50q0 74 36 126q31 44 77 57q36 10 69 10h145q0 42 -30 55q-20 9 -32 12q-18 4 -52 5
q-84 2 -108.5 -22.5t-23.5 -49.5h-48q-3 38 24 68q41 46 152 46q105 0 143 -48q19 -24 24 -47q4 -17 4 -60h-101q-95 -1 -96 -2q-58 -5 -89 -30q-40 -32 -43 -102q-3 -52 14 -95q20 -52 63 -68t119 -13q92 4 131 32v-42q-5 -3 -27 -14q31 -1 38 -35q1 -3 2 -33
q1 -53 -19 -75q-6 -5 -20.5 -20.5t-16.5 -42.5q18 4 27 2q4 -1 14.5 -5.5t15.5 -4.5q31 1 42 17.5t11 42.5q0 10 -2 18q-2 27 -24 30q-8 0 -28 2q0 55 1 61q4 14 15 31q10 12 37 12q17 0 28 -6q20 -12 20 -69z" />
    <glyph glyph-name="summation" unicode="&#x2211;" horiz-adv-x="170" 
d="M112 248l-4 -98h-45l-3 98v384h52v-384zM108 0h-45v48h45v-48z" />
    <glyph glyph-name="radical" unicode="&#x221a;" horiz-adv-x="518" 
d="M540 568q-38 -37 -95 -96q4 -5 12 -17q9 -18 9 -45q0 -26 -11 -46q35 -44 35 -122q0 -28 -5 -57q-17 -102 -102 -154q-31 -19 -85 -28q-59 -9 -116 3q-46 5 -84 32q-85 59 -85 183q0 112 66 157q12 8 59 15h82q4 49 -32 67q-13 7 -37 5q-22 -1 -35 -7q-34 -15 -38 -70
q-4 0 -38 -2q-6 52 30 88q31 31 65 32q108 3 118 -71q7 33 38 53q23 15 51 18q1 23 0 101h35v-100q13 0 37 -12q18 17 74 73h52zM423 379q12 36 -6 60q-22 30 -69 28q-24 -1 -45 -22.5t-22 -51.5q-1 -69 58 -68q67 1 84 54zM452 227q2 67 -19 100q-16 -22 -42 -30
q-29 -9 -52 -9q-60 0 -87 47q-6 11 -9 23h-77q-91 0 -109 -85q-5 -22 -5 -46q0 -61 26 -110q38 -73 170 -76q87 -2 147 51q55 49 57 135z" />
    <glyph glyph-name="infinity" unicode="&#x221e;" horiz-adv-x="431" 
d="M423 -93q0 -47 -35 -72q-31 -22 -90 -18q-42 3 -67 11v45q33 -15 87 -11q60 4 60 43q0 46 -55 46h-30v26q5 5 19 24q-14 1 -41 -2.5t-43 -3.5q-44 0 -69 5.5t-32 8.5q-13 5 -35 17q-63 36 -77 124q-4 26 -4 50q0 74 36 126q31 44 77 57q36 10 69 10h145q0 42 -30 55
q-20 9 -32 12q-18 4 -52 5q-84 2 -108.5 -22.5t-23.5 -49.5h-49q0 40 25 68q41 46 152 46q105 0 143 -48q19 -24 24 -47q4 -17 4 -60h-101q-95 -1 -96 -2q-58 -5 -89 -30q-40 -32 -43 -102q-3 -52 14 -95q20 -52 63 -68t119 -13q92 4 131 32v-45q-3 -3 -39 -37q37 0 54 -17
q19 -20 19 -68z" />
    <glyph glyph-name="integral" unicode="&#x222b;" horiz-adv-x="503" 
d="M483 -119h-355v43h308v94q-40 -23 -124 -23q-44 0 -69.5 5.5t-32.5 8.5q-13 4 -35 17q-64 36 -77 124q-4 25 -4 49q0 75 36 126q32 45 78 58q37 10 69 10h145q0 41 -31 55q-20 9 -31 12q-18 4 -52 5q-85 2 -110 -23t-23 -49q-79 0 -99 -64q-8 -26 -9 -71v-83h-42v88
q0 97 39 133q25 23 70 32q6 19 18 33q41 46 151 46q106 0 144 -48q19 -23 24 -47q3 -16 3 -60h-101l-95 -2q-58 -5 -89 -30q-41 -32 -44 -102q-3 -54 15 -97q21 -53 67 -68q42 -13 114 -11q75 3 98 34q14 0 44 1v-196z" />
    <glyph glyph-name="approxequal" unicode="&#x2248;" horiz-adv-x="805" 
d="M849 -21q0 -71 -44 -114q-40 -39 -115 -39q-30 0 -58 9q-94 30 -94 118q0 28 13 48q-17 3 -66 25q-64 36 -77 124q-4 25 -4 49q0 75 36 126q32 45 78 58q37 10 69 10h153q1 36 -37 57q-24 13 -85 15q-78 2 -104 -19t-23 -53h-40q-14 72 -93 72q-54 0 -83 -30
q-18 -19 -40 -50q40 2 68 -7q45 -15 65 -51q25 -46 25 -125q0 -81 -37 -130.5t-92 -63.5q-31 -8 -66 -8q-66 0 -100 22q-25 16 -34 26q-20 21 -34 60q-11 31 -11 139q0 21 2 56h37q0 -27 32 -27q37 0 52 22q33 50 53 98q0 42 -20 59q-10 10 -35 10t-35 -10q-27 -27 -24 -90
h-43q-4 60 19 98q28 43 87 43q38 0 56 -13q26 -19 28 -50q11 12 45 42q31 22 87 22q21 0 39 -4q52 -10 69 -45q29 49 145 49q106 0 144 -48q19 -23 24 -47q3 -16 3 -60h-101q-47 0 -93 -1q-57 -5 -88 -30q-40 -32 -48 -103q-5 -45 11 -89q19 -53 61.5 -71.5t124.5 -15.5
q92 4 132 32v-45q-46 -30 -185 -30q-15 -26 -7 -71q5 -28 37 -44q28 -14 65 -13q71 2 95 41q17 28 17 54q0 7 -2 13q23 -1 46 0zM348 213q-1 78 -33 110q-29 29 -95 25q-10 -21 -21 -38q-27 -41 -51 -57q-18 -12 -50 -12q-23 0 -36 7q-1 -118 19 -149t44 -43q28 -14 78 -14
q37 0 71 18q41 21 59 62q16 36 15 91z" />
    <glyph glyph-name="approxequal" unicode="&#x22f2;" horiz-adv-x="805" 
d="M849 -21q0 -71 -44 -114q-40 -39 -115 -39q-30 0 -58 9q-94 30 -94 118q0 28 13 48q-17 3 -66 25q-64 36 -77 124q-4 25 -4 49q0 75 36 126q32 45 78 58q37 10 69 10h153q1 36 -37 57q-24 13 -85 15q-78 2 -104 -19t-23 -53h-40q-14 72 -93 72q-54 0 -83 -30
q-18 -19 -40 -50q40 2 68 -7q45 -15 65 -51q25 -46 25 -125q0 -81 -37 -130.5t-92 -63.5q-31 -8 -66 -8q-66 0 -100 22q-25 16 -34 26q-20 21 -34 60q-11 31 -11 139q0 21 2 56h37q0 -27 32 -27q37 0 52 22q33 50 53 98q0 42 -20 59q-10 10 -35 10t-35 -10q-27 -27 -24 -90
h-43q-4 60 19 98q28 43 87 43q38 0 56 -13q26 -19 28 -50q11 12 45 42q31 22 87 22q21 0 39 -4q52 -10 69 -45q29 49 145 49q106 0 144 -48q19 -23 24 -47q3 -16 3 -60h-101q-47 0 -93 -1q-57 -5 -88 -30q-40 -32 -48 -103q-5 -45 11 -89q19 -53 61.5 -71.5t124.5 -15.5
q92 4 132 32v-45q-46 -30 -185 -30q-15 -26 -7 -71q5 -28 37 -44q28 -14 65 -13q71 2 95 41q17 28 17 54q0 7 -2 13q23 -1 46 0zM348 213q-1 78 -33 110q-29 29 -95 25q-10 -21 -21 -38q-27 -41 -51 -57q-18 -12 -50 -12q-23 0 -36 7q-1 -118 19 -149t44 -43q28 -14 78 -14
q37 0 71 18q41 21 59 62q16 36 15 91z" />
    <glyph glyph-name="notequal" unicode="&#x2260;" horiz-adv-x="518" 
d="M473 605q10 -18 10 -37q0 -48 -40 -70q-17 -10 -56 -10q-33 6 -49 20q-10 4 -17 23.5t-4 36.5q6 34 28 48q-32 1 -78 2q-70 -3 -102 -13t-47 -37q-19 -25 -20 -76h-45q-5 47 15 88q18 35 60 58q52 28 152 25q55 -2 67 -2q34 -2 58 -9q48 -13 68 -47zM502 122
q0 -53 -30 -110q-26 -49 -82 -79.5t-125 -31.5q-85 -1 -157 54t-88 167q-12 82 -1 143q13 75 42 120q48 75 117 107q32 15 97 15q60 0 93 -14q85 -36 112 -122q12 -38 12 -79q0 -34 -9 -69q-5 -21 -32 -65q-36 -59 -123 -59t-120 61q-18 34 -18 86q0 32 8 58h-43v45h224v-46
l-134 1q-9 -25 -9 -53q0 -48 22 -74q28 -33 76 -33q42 0 68 25q46 45 43 128q-3 81 -51 126q-46 42 -122 42q-139 0 -196 -162q-16 -44 -16 -101q0 -88 28 -149q21 -47 74 -79q48 -29 96 -30q103 -2 157 64q43 52 43 114h44zM435 558q0 36 -37 36q-16 0 -26.5 -12t-9.5 -24
q2 -30 36 -30q37 0 37 30z" />
    <glyph glyph-name="lessequal" unicode="&#x2264;" horiz-adv-x="622" 
d="M599 134q5 -93 -34 -132q-19 -19 -67 -17t-75 40q-11 15 -17 47q-6 29 -4 49q-2 78 40 172q36 81 73 134h-95v39h145v-38q-14 -22 -60 -100q-24 -43 -41 -96q-21 -68 -20 -112q1 -46 17 -69.5t47 -23.5q19 0 31 10q22 18 22 95q22 -1 38 2zM463 -21q0 -70 -45 -114
q-37 -36 -112 -36q-30 0 -58 8q-60 18 -80 55q-16 29 -16 63q0 27 12 46q-17 3 -66 25q-62 35 -76 124q-4 26 -4 50q0 74 36 126q31 44 77 57q36 10 69 10h145q0 41 -31 55q-19 9 -31 12q-18 4 -52 5q-84 2 -108.5 -22.5t-24.5 -49.5h-49q2 41 26 68q41 46 152 46
q104 0 143 -48q19 -24 24 -47q4 -17 4 -60h-101q-95 -1 -96 -2q-58 -5 -89 -30q-41 -32 -44 -102q-3 -52 14 -96q21 -52 64.5 -67.5t117.5 -12.5q92 4 132 32v-45q-46 -30 -185 -30q-16 -27 -7 -71q6 -28 37 -44q28 -14 65 -13q70 2 95 41q18 28 18 54q0 7 -2 13q11 1 46 0z
" />
    <glyph glyph-name="greaterequal" unicode="&#x2265;" horiz-adv-x="416" 
d="M400 -119h-356v43h309v94q-40 -23 -125 -23q-44 0 -69 5.5t-32 8.5q-13 5 -35 17q-63 36 -77 124q-4 26 -4 50q0 74 36 126q31 44 77 57q36 10 69 10h145q0 42 -30 55q-20 9 -32 12q-18 4 -52 5q-84 2 -108.5 -22.5t-23.5 -49.5h-49q0 40 25 68q41 46 152 46
q105 0 143 -48q19 -24 24 -47q4 -17 4 -60h-101q-95 -1 -96 -2q-58 -5 -89 -30q-40 -32 -43 -102q-3 -60 17 -103q24 -53 77 -65q42 -10 102 -8q75 3 98 34q14 0 44 1v-196z" />
    <glyph glyph-name="lozenge" unicode="&#x25ca;" horiz-adv-x="738" 
d="M678 498h-42q5 45 -14 74q-25 39 -92 45q-11 1 -78 1q-62 0 -94 -12q-23 -9 -39 -34.5t-16 -68.5h-39q-1 47 14 78q18 37 54.5 58.5t140.5 21.5q79 0 118 -11q47 -13 69 -58q18 -36 18 -94zM713 246q-5 -103 -32.5 -158t-72.5 -76q-41 -19 -83 -7q-66 19 -66 110
q15 1 39 0q0 -49 30 -66q16 -9 34 -9q30 0 53 23q28 27 44 82q18 59 16 127q-6 193 -73 193q-26 0 -36 -25q-5 -13 -8 -52q-4 -46 0 -152q-21 -1 -41 0v75q-2 71 -11 109q-11 45 -38 45q-32 0 -36 -70q-3 -55 4 -131q4 -124 -43 -198q-37 -59 -140 -67q-67 -5 -120 21
q-37 18 -65 12q-20 -4 -24 -29h-31q-5 109 35 151q9 9 36 38q-29 26 -29 109q0 22 3 44q4 37 23 74t41 53q46 34 109 34q80 0 114 -37q33 33 76 74h51q-33 -29 -99 -100q7 -6 20 -30q10 51 30 69q28 25 61 20q39 -6 50 -57q6 27 14 38q17 24 58 24q76 0 100 -133
q10 -55 7 -128zM394 247q-2 50 -11 81q-11 40 -42 85q-35 51 -109 51q-38 0 -70 -18q-60 -35 -64 -131q-3 -89 38 -122q26 -21 58 -21q40 0 61 33q15 31 12 99h38q1 -16 -1 -67q-6 -59 -52 -89q-35 -18 -79 -12q-38 5 -61 30q-15 -12 -50 -59q-10 -17 -15 -49q19 9 43 9
q15 0 30 -4q84 -22 112 -22q16 0 31 2q84 13 111 81q23 56 20 123z" />
    <glyph glyph-name="fl" unicode="&#xf002;" horiz-adv-x="305" 
d="M291 -200h-249v865h247v-47h-192v-771h192z" />
    <glyph glyph-name="glyph143" 
 />
    <glyph glyph-name="glyph144" 
 />
    <glyph glyph-name="glyph146" 
 />
    <glyph glyph-name="glyph147" 
 />
    <glyph glyph-name="glyph148" 
 />
    <glyph glyph-name="glyph149" 
 />
    <glyph glyph-name="glyph152" 
 />
  </font>
</defs>
</svg>
